<?xml version="1.0" standalone="no"?>
<!DOCTYPE svg PUBLIC "-//W3C//DTD SVG 1.1//EN" "http://www.w3.org/Graphics/SVG/1.1/DTD/svg11.dtd" >
<svg>
<metadata>
Created by FontForge 20110222 at Thu Aug  8 06:38:20 2013
 By www-data
Copyright (c) 2012 by Fontfabric LLC. All rights reserved.
</metadata>
<defs>
<font id="." horiz-adv-x="1210" >
  <font-face 
    font-family="."
    font-weight="400"
    font-stretch="normal"
    units-per-em="2048"
    panose-1="2 0 0 0 0 0 0 0 0 0"
    ascent="1536"
    descent="-512"
    x-height="987"
    cap-height="1434"
    bbox="-84 -553.625 1952 1905"
    underline-thickness="102"
    underline-position="-102"
    unicode-range="U+000D-E000"
  />
<missing-glyph horiz-adv-x="748" 
d="M68 0v1365h544v-1365h-544zM136 68h408v1229h-408v-1229z" />
    <glyph glyph-name=".notdef" horiz-adv-x="748" 
d="M68 0v1365h544v-1365h-544zM136 68h408v1229h-408v-1229z" />
    <glyph glyph-name="glyph1" horiz-adv-x="2048" 
 />
    <glyph glyph-name="glyph1" horiz-adv-x="2048" 
 />
    <glyph glyph-name="uni000D" unicode="&#xd;" horiz-adv-x="2048" 
 />
    <glyph glyph-name="space" unicode=" " horiz-adv-x="514" 
 />
    <glyph glyph-name="exclam" unicode="!" horiz-adv-x="559" 
d="M141 96q0 58 38 91.5t97 33.5q58 0 97 -33.5t39 -91.5q0 -54 -39.5 -89.5t-96.5 -35.5q-58 0 -96.5 35t-38.5 90zM156 1436h243l-12 -1106h-213z" />
    <glyph glyph-name="quotedbl" unicode="&#x22;" horiz-adv-x="761" 
d="M143 989v445h181l-27 -445h-154zM451 989v445h180l-27 -445h-153z" />
    <glyph glyph-name="numbersign" unicode="#" horiz-adv-x="1429" 
d="M88 387v160h242l45 293h-223v161h247l64 431h199l-62 -431h348l66 431h198l-61 -431h188v-161h-213l-43 -293h191v-160h-213l-55 -387h-207l57 387h-344l-55 -387h-209l57 387h-217zM526 543h359l45 303h-359z" />
    <glyph glyph-name="dollar" unicode="$" horiz-adv-x="1316" 
d="M88 408h229q3 -66 47.5 -116t105.5 -74.5t130 -29.5v451q-80 9 -146.5 24.5t-131.5 45t-109.5 70.5t-72 104t-27.5 143q0 100 41 181t110.5 133t155 82t180.5 36v139h121v-143q91 -9 172 -39t147 -80t106 -127t42 -172h-223q-7 99 -72 146t-172 61v-422q92 -11 159 -25.5
t138 -44.5t115.5 -72.5t73 -111.5t28.5 -159q0 -98 -44.5 -178.5t-119 -132t-163.5 -82.5t-187 -40v-139h-121v137q-100 9 -188 39t-161 81.5t-117 132.5t-46 182zM348 1032q0 -40 15 -71.5t37 -51t58 -34.5t67 -23t75 -16v407q-47 -4 -89.5 -18t-80 -38t-60 -64t-22.5 -91z
M721 190q274 33 274 218q0 24 -3.5 45t-12 38t-16 30.5t-24.5 25.5t-27 20t-33.5 16.5t-35 13t-40 11t-39.5 9t-43 8.5v-435z" />
    <glyph glyph-name="percent" unicode="%" horiz-adv-x="1798" 
d="M72 1106q0 86 30.5 155t80 111.5t113 65.5t129.5 23t129.5 -23t113 -65.5t80 -111.5t30.5 -155q0 -85 -30.5 -154t-80 -111.5t-113 -65.5t-129.5 -23t-129.5 23t-113 65.5t-80 111.5t-30.5 154zM254 1106q0 -62 25.5 -107.5t63.5 -66t83 -20.5t83 21t63.5 66t25.5 107
q0 54 -19 96t-49.5 63.5t-67 31.5t-73 0t-67 -31.5t-49.5 -63.5t-19 -96zM434 0l703 1432h213l-705 -1432h-211zM1020 322q0 85 30.5 153.5t80 111t113 65.5t129.5 23t129.5 -23t113 -65t80 -111t30.5 -154q0 -113 -52.5 -196t-130.5 -120.5t-170 -37.5t-170 37.5
t-130.5 120.5t-52.5 196zM1200 322q0 -62 25.5 -107.5t64 -66t83.5 -20.5t83.5 20.5t64 66t25.5 107.5t-25.5 107t-64 65t-83.5 20t-83.5 -20.5t-64 -65.5t-25.5 -106z" />
    <glyph glyph-name="ampersand" unicode="&#x26;" horiz-adv-x="1320" 
d="M102 432q0 135 68.5 233t191.5 146q-81 41 -126 117t-43 170q0 160 121.5 268.5t324.5 108.5q209 -1 314 -95t116 -284h-199q-11 98 -68.5 149t-160.5 51q-115 -1 -175 -55t-60 -143q0 -102 74.5 -153.5t205.5 -51.5v-193h-72q-125 0 -201.5 -69.5t-76.5 -190.5
q0 -115 83 -188.5t210 -73.5q134 0 206 76t72 207v430h344v-184h-141v-246q0 -227 -126.5 -355.5t-354.5 -128.5q-124 0 -225 36.5t-166.5 99.5t-100.5 145t-35 174z" />
    <glyph glyph-name="quotesingle" unicode="'" horiz-adv-x="456" 
d="M145 983v451h181l-29 -451h-152z" />
    <glyph glyph-name="parenleft" unicode="(" horiz-adv-x="675" 
d="M551 -442q-112 62 -201 171.5t-146 243.5t-87.5 291t-31.5 315t28.5 315t85.5 290.5t146.5 242.5t205.5 170l76 -135q-106 -71 -180 -213t-106.5 -312.5t-30.5 -362t38 -361t108.5 -309.5t170.5 -209z" />
    <glyph glyph-name="parenright" unicode=")" horiz-adv-x="675" 
d="M49 -305q101 71 174 213t108 311.5t35.5 360t-33 360t-107 310.5t-177.5 212l76 135q152 -80 259.5 -242t156.5 -357.5t48.5 -416t-51 -417t-157.5 -360.5t-256 -246z" />
    <glyph glyph-name="asterisk" unicode="*" horiz-adv-x="858" 
d="M104 1169l46 150l208 -78l-12 213h166l-14 -213l202 82l50 -152l-207 -59l149 -178l-133 -96l-129 182l-129 -184l-131 100l149 172z" />
    <glyph glyph-name="plus" unicode="+" horiz-adv-x="978" 
d="M115 659v181h282v280h187v-280h280v-181h-280v-280h-187v280h-282z" />
    <glyph glyph-name="comma" unicode="," horiz-adv-x="528" 
d="M129 96q0 56 38.5 90.5t96.5 34.5q80 0 114.5 -57t6.5 -131l-74 -228h-127l41 170q-43 11 -69.5 43t-26.5 78z" />
    <glyph glyph-name="hyphen" unicode="-" horiz-adv-x="952" 
d="M131 586v192h690v-192h-690z" />
    <glyph glyph-name="period" unicode="." horiz-adv-x="532" 
d="M129 102q0 59 39 94t98 35t98 -35t39 -94q0 -56 -39.5 -91.5t-97.5 -35.5t-97.5 35.5t-39.5 91.5z" />
    <glyph glyph-name="slash" unicode="/" horiz-adv-x="1040" 
d="M59 2l693 1432h229l-694 -1432h-228z" />
    <glyph glyph-name="zero" unicode="0" horiz-adv-x="1343" 
d="M139 467v496q0 224 153 358.5t382 134.5q147 0 267 -58.5t191.5 -172t71.5 -262.5v-496q0 -113 -41.5 -207t-113.5 -156.5t-168.5 -96.5t-206.5 -34q-111 0 -208.5 34t-170 96.5t-114.5 156.5t-42 207zM365 528q0 -63 14 -135q23 -100 102.5 -154.5t192.5 -54.5t191.5 54
t101.5 155q14 72 14 135v371q0 63 -14 135q-23 102 -101.5 157.5t-191.5 55.5t-192.5 -55.5t-102.5 -157.5q-14 -72 -14 -135v-371z" />
    <glyph glyph-name="one" unicode="1" horiz-adv-x="911" 
d="M96 0v184h262v1061h-229v189h459v-1250h266v-184h-758z" />
    <glyph glyph-name="two" unicode="2" horiz-adv-x="1099" 
d="M88 0v51l563 735q46 55 74 121t31.5 129t-15 115.5t-71 84.5t-131.5 32q-104 0 -165 -62.5t-67 -173.5h-192q5 205 113.5 311t318.5 107q123 0 215.5 -45t140 -123t58 -174.5t-26 -207.5t-115.5 -214q-34 -38 -78 -94.5t-134 -175t-169 -219.5h553v-197h-903z" />
    <glyph glyph-name="three" unicode="3" horiz-adv-x="1179" 
d="M94 403h211q10 -107 80.5 -164t183.5 -57q126 0 201.5 73.5t75.5 199.5q0 69 -27 124t-71.5 86t-101.5 50t-118.5 16.5t-121.5 -14.5v41l323 481h-577v193h907v-37l-363 -516q115 -5 202 -66.5t130 -155t43 -200.5q0 -134 -58 -242.5t-172.5 -174t-267.5 -65.5
q-201 0 -334 115t-145 313z" />
    <glyph glyph-name="four" unicode="4" horiz-adv-x="1216" 
d="M55 301v107l678 1026h244v-938h139v-195h-139v-301h-217v301h-705zM336 487h438v318l12 350h-4z" />
    <glyph glyph-name="five" unicode="5" horiz-adv-x="1187" 
d="M111 395h219q10 -109 80 -165t180 -56q116 0 197 70.5t85 208.5q1 81 -24.5 140t-74 93t-107 51t-131.5 21q-170 8 -373 -41v717h846v-201h-652v-318q94 21 193 21q118 -2 213 -28.5t171.5 -80.5t118.5 -147.5t42 -220.5q0 -98 -33.5 -184.5t-96 -154t-160.5 -106.5
t-220 -39q-197 0 -326.5 112t-146.5 308z" />
    <glyph glyph-name="six" unicode="6" horiz-adv-x="1224" 
d="M90 457q0 156 92 297l434 688h265l-351 -557q59 33 129 33q217 5 355.5 -119t138.5 -342q0 -94 -27 -172t-75 -134t-114.5 -95t-146 -57.5t-169.5 -18.5q-89 0 -168.5 18.5t-146 57.5t-114.5 95t-75 134t-27 172zM324 457q0 -130 82 -202.5t215 -72.5q134 0 215.5 72
t81.5 203q0 130 -82 203t-215 73q-134 0 -215.5 -72.5t-81.5 -203.5z" />
    <glyph glyph-name="seven" unicode="7" horiz-adv-x="1083" 
d="M72 1223v211h991v-35l-637 -1399h-242l555 1223h-667z" />
    <glyph glyph-name="eight" unicode="8" horiz-adv-x="1267" 
d="M102 428q0 128 68 226t186 153q-161 96 -161 272q-5 159 118 268t322 109q196 0 319 -106.5t123 -266.5q0 -89 -45.5 -159t-122.5 -117q118 -55 186.5 -152t69.5 -223q0 -196 -145.5 -325.5t-384.5 -129.5q-237 0 -385 129t-148 322zM336 434q0 -114 86.5 -185t212.5 -71
t212.5 72t86.5 188q0 119 -86.5 191.5t-214.5 72.5q-126 0 -211.5 -74.5t-85.5 -193.5zM403 1071q0 -86 67 -139t163 -53q101 0 166 52.5t65 141.5q0 88 -66 141.5t-163 53.5q-100 0 -166 -54t-66 -143z" />
    <glyph glyph-name="nine" unicode="9" horiz-adv-x="1218" 
d="M72 989q0 94 27 172t75 134t114.5 95t146 57.5t169.5 18.5q89 0 168.5 -18.5t146 -57.5t114.5 -95t75 -134t27 -172q0 -155 -97 -303l-432 -686h-260l361 563q-59 -35 -136 -35q-220 -5 -359.5 119t-139.5 342zM307 989q0 -130 82 -203t215 -73q132 0 213.5 73t81.5 203
t-81 202.5t-214 72.5q-134 0 -215.5 -72t-81.5 -203z" />
    <glyph glyph-name="colon" unicode=":" horiz-adv-x="536" 
d="M131 102q0 59 39 94t98 35t98.5 -35.5t39.5 -93.5q0 -56 -40 -91.5t-98 -35.5t-97.5 35.5t-39.5 91.5zM131 762q0 59 39 94t98 35t98.5 -35.5t39.5 -93.5q0 -56 -40 -91.5t-98 -35.5t-97.5 35.5t-39.5 91.5z" />
    <glyph glyph-name="semicolon" unicode=";" horiz-adv-x="538" 
d="M133 762q0 56 39 90.5t96 34.5t96 -34.5t39 -90.5q0 -55 -39 -90t-96 -35t-96 35t-39 90zM135 96q0 56 38.5 90.5t96.5 34.5t95.5 -35t37.5 -96q-1 -17 -12 -57l-72 -217h-135l47 159q-43 11 -69.5 43t-26.5 78z" />
    <glyph glyph-name="less" unicode="&#x3c;" horiz-adv-x="1110" 
d="M94 625v166l846 364v-199l-586 -249l586 -256v-197z" />
    <glyph glyph-name="equal" unicode="=" horiz-adv-x="1107" 
d="M145 385v188h818v-188h-818zM145 772v184h818v-184h-818z" />
    <glyph glyph-name="greater" unicode="&#x3e;" horiz-adv-x="1110" 
d="M170 254v197l586 258l-586 247v199l846 -364v-166z" />
    <glyph glyph-name="question" unicode="?" horiz-adv-x="1030" 
d="M74 1038q7 198 121 301t299 103q170 5 297.5 -83.5t152.5 -232.5q13 -77 4 -135q-9 -74 -46.5 -138.5t-83.5 -113.5t-90.5 -103t-73.5 -131.5t-27 -172.5h-234q-3 79 10 145.5t37.5 113.5t55.5 86t65 73.5t64 66.5t55.5 72.5t36.5 85.5q16 121 -49.5 189.5t-171.5 68.5
q-81 0 -147 -53.5t-77 -141.5h-198zM373 98q0 56 39.5 90.5t97.5 34.5t95.5 -34.5t37.5 -90.5q0 -55 -38 -90t-95 -35q-58 0 -97.5 35t-39.5 90z" />
    <glyph glyph-name="at" unicode="@" horiz-adv-x="1859" 
d="M106 487q21 243 146.5 434t328 296.5t445.5 105.5q248 0 427 -101.5t264 -289.5t61 -436q-13 -147 -73.5 -268.5t-155.5 -192t-203 -70.5q-88 0 -127 51.5t-31 141.5l2 30q-50 -97 -142.5 -153t-199.5 -58q-108 0 -191.5 41t-133 111.5t-70.5 162t-11 195.5
q12 124 63.5 223.5t130.5 163t180 96.5t214 31q98 0 213 -43.5t187 -107.5l-52 -588q-7 -69 3 -102.5t46 -34.5q58 0 106.5 60.5t75 143.5t31.5 167q29 320 -139 505t-487 185q-206 0 -375 -88t-273.5 -247.5t-123.5 -363.5q-14 -161 21 -293.5t112 -219.5t185 -133.5
t245 -41t285 63.5l-13 -131q-140 -50 -273 -57.5t-244.5 24t-202.5 101t-151.5 168t-87 232t-12.5 287.5zM666 487q-8 -86 12 -155t76.5 -113.5t142.5 -44.5q83 0 146.5 45.5t97 114t41.5 149.5l24 262q-88 69 -219 72q-125 -5 -217.5 -92.5t-103.5 -237.5z" />
    <glyph glyph-name="A" unicode="A" horiz-adv-x="1439" 
d="M2 0v31l664 1413h110l660 -1413v-31h-248l-141 297h-656l-139 -297h-250zM469 498h502l-250 573z" />
    <glyph glyph-name="B" unicode="B" horiz-adv-x="1370" 
d="M178 0v1434h582q203 0 326.5 -104t123.5 -300q0 -93 -42.5 -164t-125.5 -112q112 -38 172 -124t60 -208q0 -192 -123 -307t-332 -115h-641zM416 209h389q102 0 165.5 56t67.5 157q0 109 -73 170q-60 45 -187 45h-362v-428zM416 831h327q231 0 234 193q0 102 -62.5 152.5
t-171.5 50.5h-327v-396z" />
    <glyph glyph-name="C" unicode="C" horiz-adv-x="1556" 
d="M94 715q0 169 59 309.5t159 232.5t232 142.5t279 50.5q107 0 209 -30t190.5 -87.5t154 -150.5t93.5 -211h-229q-52 129 -162.5 194.5t-257.5 67.5q-219 0 -353 -144t-134 -374q0 -142 60 -258.5t172 -185t255 -68.5q152 0 266 73.5t160 212.5h232q-26 -127 -91.5 -225.5
t-156 -158t-194.5 -89.5t-216 -30q-147 0 -278 50t-231 141t-159 230.5t-59 307.5z" />
    <glyph glyph-name="D" unicode="D" horiz-adv-x="1495" 
d="M180 0v1432h518q162 0 296.5 -58t222 -157t135 -227.5t47.5 -270.5q0 -114 -29 -219.5t-88 -196.5t-142 -158.5t-196.5 -106t-245.5 -38.5h-518zM418 217h276q108 0 197.5 40t148 109t90 159t31.5 192t-32 192.5t-90 159t-147 108.5t-196 40h-278v-1000z" />
    <glyph glyph-name="E" unicode="E" horiz-adv-x="1181" 
d="M178 0v1434h873v-209h-633v-379h598v-211h-598v-418h645v-217h-885z" />
    <glyph glyph-name="F" unicode="F" horiz-adv-x="1122" 
d="M178 0v1434h864v-209h-626v-457h569v-211h-569v-557h-238z" />
    <glyph glyph-name="G" unicode="G" horiz-adv-x="1585" 
d="M94 719q0 167 59 307t159 232t231 143t276 51q148 0 274 -44.5t226.5 -147.5t142.5 -256h-235q-112 233 -410 233q-146 0 -257 -70t-167.5 -186.5t-56.5 -261.5q0 -230 131 -375t350 -145q410 0 463 372h-446v203h671q10 -227 -51 -389q-79 -198 -248.5 -300.5
t-388.5 -102.5q-147 0 -278 51t-230 144t-157 233.5t-58 308.5z" />
    <glyph glyph-name="H" unicode="H" horiz-adv-x="1488" 
d="M178 0v1434h238v-576h655v576h240v-1434h-240v639h-655v-639h-238z" />
    <glyph glyph-name="I" unicode="I" horiz-adv-x="856" 
d="M82 0v193h227v1050h-209v191h656v-191h-209v-1050h227v-193h-692z" />
    <glyph glyph-name="J" unicode="J" horiz-adv-x="1300" 
d="M63 477v162h224v-158q0 -138 84 -213t223 -75q138 0 221.5 75.5t83.5 212.5v746h-303v207h541v-957q0 -152 -73 -266.5t-195 -172.5t-275 -58q-232 0 -381.5 134t-149.5 363z" />
    <glyph glyph-name="K" unicode="K" horiz-adv-x="1402" 
d="M178 0v1434h240v-635q68 0 110 1.5t91 10t79 23.5q56 30 91.5 113t72.5 227q16 58 38.5 102.5t59 83.5t85.5 58t118 26t156 -12v-164q-110 8 -158 -24t-80 -140q-38 -139 -79 -231t-107 -152l471 -686v-35h-270l-410 627q-61 -23 -268 -23v-604h-240z" />
    <glyph glyph-name="L" unicode="L" horiz-adv-x="1067" 
d="M178 0v1434h240v-1219h616v-215h-856z" />
    <glyph glyph-name="M" unicode="M" horiz-adv-x="1697" 
d="M178 0v1438h88l584 -742l582 742h88v-1438h-240v897l-414 -530h-32l-416 530v-897h-240z" />
    <glyph glyph-name="N" unicode="N" horiz-adv-x="1533" 
d="M178 0v1438h86l871 -965l-17 438v523h238v-1436h-82l-877 977l17 -455v-520h-236z" />
    <glyph glyph-name="O" unicode="O" horiz-adv-x="1648" 
d="M94 717q0 170 59.5 312t160.5 234.5t232.5 143.5t278.5 51t279 -51t232 -143.5t159 -234.5t59 -312q0 -216 -92.5 -385t-260 -263t-380.5 -94q-148 0 -279.5 51t-231 144t-158 234.5t-58.5 312.5zM336 717q0 -122 38.5 -221t105 -163t155 -98t190.5 -34q101 0 190 34
t156.5 98t106.5 163t39 221q0 120 -39 219t-105.5 163.5t-155.5 100t-190 35.5q-102 0 -191 -35t-156 -99t-105.5 -163.5t-38.5 -220.5z" />
    <glyph glyph-name="P" unicode="P" horiz-adv-x="1335" 
d="M178 0v1434h594q116 0 213 -40.5t160.5 -110.5t98 -161.5t34.5 -193.5q0 -101 -35.5 -191t-99 -158.5t-160 -108.5t-211.5 -40h-354v-430h-240zM414 639h358q120 0 198.5 84.5t78.5 210.5t-77 209.5t-200 83.5h-358v-588z" />
    <glyph glyph-name="Q" unicode="Q" horiz-adv-x="1646" 
d="M94 719q0 217 92 386t258.5 262t380.5 93q146 0 277.5 -51t232 -143.5t160 -234.5t59.5 -312q0 -280 -147 -465l145 -231v-37h-217l-84 129q-193 -136 -436 -133q-147 0 -278.5 52.5t-229.5 147t-155.5 234t-57.5 303.5zM336 719q0 -122 38.5 -221t105.5 -163t155.5 -98
t189.5 -34q102 0 190 32.5t155.5 95t106 162.5t38.5 226q0 123 -39 222.5t-106 163.5t-156 98t-191 34q-100 0 -188.5 -35.5t-155 -100t-105 -163.5t-38.5 -219z" />
    <glyph glyph-name="R" unicode="R" horiz-adv-x="1396" 
d="M178 0v1434h592q114 0 208.5 -37t157.5 -100.5t97.5 -148.5t34.5 -181q0 -148 -82 -264t-219 -166l364 -502v-35h-241l-357 500h-315v-500h-240zM414 696h354q117 0 192.5 76t75.5 193q0 113 -75 187.5t-193 74.5h-354v-531z" />
    <glyph glyph-name="S" unicode="S" horiz-adv-x="1325" 
d="M92 408h234q5 -77 59 -129t126.5 -72.5t156.5 -20.5q49 0 93 6t88.5 22t77 40.5t52.5 64.5t20 91q0 31 -7.5 57t-18.5 45.5t-31 35.5t-37.5 27t-47.5 20.5t-50.5 14.5t-56 10t-55 7t-56.5 6q-85 7 -155.5 21.5t-140.5 44t-118 71.5t-78 107.5t-30 148.5q0 107 44.5 191.5
t120.5 136.5t171 79t202 27q105 0 198 -24.5t169.5 -73t122 -130.5t47.5 -188h-225q-4 55 -33 96t-75.5 63.5t-98 33t-107.5 10.5q-53 0 -103 -11.5t-96 -35t-74 -67t-28 -101.5q0 -26 6.5 -49t15 -39.5t27.5 -31.5t32.5 -24.5t42.5 -19t44.5 -14t52 -11t52 -8.5t55.5 -8
q71 -8 123 -16t114 -23.5t105 -35.5t86.5 -51t69.5 -71t42.5 -96.5t16.5 -125.5q0 -91 -33 -165.5t-88.5 -124t-129.5 -83t-152.5 -48t-161.5 -14.5q-86 -2 -168 13.5t-156 50.5t-130 85.5t-90 124t-36 161.5z" />
    <glyph glyph-name="T" unicode="T" horiz-adv-x="1142" 
d="M39 1223v211h1065v-211h-416v-1223h-233v1223h-416z" />
    <glyph glyph-name="U" unicode="U" horiz-adv-x="1443" 
d="M164 481v953h237v-947q0 -137 91.5 -214.5t232.5 -77.5q140 0 229.5 77.5t89.5 214.5v947h236v-953q0 -117 -43.5 -212t-119.5 -157.5t-176.5 -96t-215.5 -33.5q-156 0 -282 57t-202.5 172t-76.5 270z" />
    <glyph glyph-name="V" unicode="V" horiz-adv-x="1370" 
d="M29 1399v35h254l204 -496l197 -530h6l189 520l206 506h252v-35l-602 -1411h-98z" />
    <glyph glyph-name="W" unicode="W" horiz-adv-x="1998" 
d="M49 1399v35h248l156 -484l149 -516h4l344 975h107l344 -973h4l143 514l152 484h252v-35l-477 -1409h-123l-346 919h-5l-346 -919h-131z" />
    <glyph glyph-name="X" unicode="X" horiz-adv-x="1327" 
d="M23 0v33l497 725l-446 641v35h256q171 -264 329 -531h7q167 283 331 531h254v-35l-444 -641l496 -725v-33h-254q-210 320 -381 604h-9q-162 -270 -383 -604h-253z" />
    <glyph glyph-name="Y" unicode="Y" horiz-adv-x="1290" 
d="M20 1399v35h256l193 -320l172 -330h8l178 340l187 310h254v-35l-504 -817v-582h-238v582z" />
    <glyph glyph-name="Z" unicode="Z" horiz-adv-x="1224" 
d="M43 0v33l481 766l287 426h-707v209l1043 -2v-35l-557 -889l-211 -297h772v-211h-1108z" />
    <glyph glyph-name="bracketleft" unicode="[" horiz-adv-x="645" 
d="M160 -375v1938h405v-183h-196v-1554h196v-201h-405z" />
    <glyph glyph-name="backslash" unicode="\" horiz-adv-x="1042" 
d="M59 1434h232l692 -1432h-229z" />
    <glyph glyph-name="bracketright" unicode="]" horiz-adv-x="645" 
d="M80 -174h196v1554h-196v183h405v-1938h-405v201z" />
    <glyph glyph-name="asciicircum" unicode="^" horiz-adv-x="1103" 
d="M104 838l365 604h162l368 -604h-198l-252 409l-246 -409h-199z" />
    <glyph glyph-name="underscore" unicode="_" horiz-adv-x="1261" 
d="M131 -18h999v-191h-999v191z" />
    <glyph glyph-name="grave" unicode="`" horiz-adv-x="688" 
d="M158 1380v21l204 78l162 -301v-23h-186z" />
    <glyph glyph-name="a" unicode="a" horiz-adv-x="1124" 
d="M70 289q-4 170 103.5 259t279.5 89q159 0 292 -74v99q0 74 -47 117t-117 53t-150 3.5t-146.5 -24t-106.5 -37.5l-33 160q153 78 365 78q75 0 139.5 -11t123.5 -37t100 -66t65.5 -102t24.5 -141v-389q0 -83 10 -106q18 -42 92 -35l4 -127q-53 -9 -89.5 -12t-75 3.5
t-62 25.5t-39 56.5t-17.5 94.5q-46 -92 -147 -138t-215 -46q-92 0 -171.5 35.5t-131 107t-51.5 164.5zM289 301q0 -69 53 -106t127 -37q98 0 179 46.5t97 133.5v82q-121 70 -256 67q-86 -2 -143 -50.5t-57 -135.5z" />
    <glyph glyph-name="b" unicode="b" horiz-adv-x="1202" 
d="M139 51v1446h223v-569q140 73 285 73q129 0 236 -63t171 -182.5t64 -272.5q0 -111 -30.5 -199.5t-82.5 -147t-124.5 -97t-153.5 -55t-172 -15.5q-212 3 -416 82zM358 184q115 -32 220 -32q143 2 230 81.5t87 249.5q0 149 -80.5 232t-202.5 88q-134 3 -254 -68v-551z" />
    <glyph glyph-name="c" unicode="c" horiz-adv-x="1157" 
d="M84 498q0 99 29.5 184t79.5 145t116 103t140.5 64t152.5 22q171 2 306 -91t173 -266h-207q-31 77 -101.5 117.5t-160.5 40.5q-123 0 -215 -85.5t-92 -233.5q0 -77 26 -139.5t69.5 -101.5t97 -60t110.5 -21q88 0 161 46.5t105 133.5h213q-19 -91 -66.5 -163t-113 -117
t-143 -68.5t-160.5 -23.5q-99 0 -190.5 33t-166 95t-119 162t-44.5 224z" />
    <glyph glyph-name="d" unicode="d" horiz-adv-x="1232" 
d="M84 496q0 112 37.5 207.5t101 160t148.5 101t180 36.5q147 0 274 -75v573h224v-1192q0 -90 4 -107q9 -37 54 -45q18 -3 44 -3l4 -154q-58 -12 -110.5 -10.5t-92 15t-63 51.5t-23.5 98v28q-91 -200 -327 -200q-142 -3 -247.5 69.5t-156.5 189t-51 257.5zM305 496
q0 -136 69 -227t199 -91q113 0 184.5 80t71.5 195v276q-65 44 -138 64t-140.5 10t-123 -44t-89 -102.5t-33.5 -160.5z" />
    <glyph glyph-name="e" unicode="e" horiz-adv-x="1128" 
d="M84 514q2 120 44.5 216t113.5 156.5t161.5 92t192.5 31.5q255 0 370.5 -153.5t65.5 -403.5h-729q0 -132 91.5 -209.5t230.5 -77.5q196 -10 358 61l29 -166q-189 -84 -373 -84q-163 -3 -290.5 61t-198.5 188t-66 288zM307 610h545q4 107 -71 167.5t-187 60.5
q-114 0 -189 -57t-98 -171z" />
    <glyph glyph-name="f" unicode="f" horiz-adv-x="806" 
d="M47 815v168h186v133q0 113 34 194.5t91.5 125t136 60.5t165.5 7t182 -41l-25 -155q-68 28 -131.5 34t-117.5 -12t-86.5 -73.5t-32.5 -143.5v-129h333v-168h-333v-815h-220v815h-182z" />
    <glyph glyph-name="g" unicode="g" horiz-adv-x="1185" 
d="M86 485q0 105 28.5 191.5t79 146.5t120 100.5t151.5 59t174 16.5q199 -3 408 -92v-968q0 -111 -30 -199.5t-82.5 -145.5t-122.5 -94t-151 -47.5t-167 -3t-172.5 35t-165.5 71.5l32 180q59 -28 117 -49.5t123 -36.5t121.5 -17.5t109 13t90 50t60 97t22.5 150.5v104
q-147 -82 -299 -82q-194 2 -320 141.5t-126 378.5zM309 485q0 -155 77 -240t198 -87q118 -3 243 78v540q-104 37 -209 37q-144 0 -226 -83t-83 -245z" />
    <glyph glyph-name="h" unicode="h" 
d="M145 0v1497h224v-631q60 81 136 112.5t181 31.5q197 0 294 -113.5t97 -312.5v-584h-225v584q1 120 -60.5 182.5t-168.5 64.5q-111 0 -182.5 -70.5t-71.5 -189.5v-571h-224z" />
    <glyph glyph-name="i" unicode="i" horiz-adv-x="518" 
d="M125 1292q0 62 40 96.5t95 34.5t94 -35t39 -96q0 -36 -15 -65t-38.5 -43.5t-52 -21.5t-57 -0.5t-52 21.5t-38.5 43.5t-15 65.5zM147 0v977h224v-977h-224z" />
    <glyph glyph-name="j" unicode="j" horiz-adv-x="516" 
d="M-84 -514l8 168q41 -8 72.5 -5t55 8t40 21t27.5 33.5t17 46t8.5 58t2.5 69.5v1098h222v-1100q0 -249 -111.5 -344t-341.5 -53zM123 1292q0 36 15 64t38.5 42.5t52 21.5t57 0.5t52 -21.5t38.5 -43t15 -64q0 -35 -15 -62.5t-38.5 -42t-52 -21.5t-57 -0.5t-52 20.5t-38.5 42
t-15 64z" />
    <glyph glyph-name="k" unicode="k" horiz-adv-x="1118" 
d="M145 0v1497h222v-895h102q178 0 257 100t79 287h211q3 -113 -18 -200t-81 -162.5t-159 -120.5l307 -483v-23h-223l-273 434q-39 -10 -104 -10h-98v-424h-222z" />
    <glyph glyph-name="l" unicode="l" horiz-adv-x="589" 
d="M135 352v1147h221v-1145q0 -126 44 -167t169 -21l9 -172q-151 -25 -249.5 -2t-146 110t-47.5 250z" />
    <glyph glyph-name="m" unicode="m" horiz-adv-x="1841" 
d="M70 989q44 11 83.5 16t83 0t74.5 -23t50.5 -58t17.5 -99q39 87 134 135t202 48q126 0 197.5 -47t101.5 -140q39 93 138 140t222 47q98 0 166.5 -33t104.5 -94t50.5 -134.5t12.5 -168.5v-578h-225v578q2 115 -47 182.5t-144 66.5q-103 -2 -166.5 -71t-64.5 -185v-571h-219
v571q0 120 -51 187.5t-152 66.5q-106 -2 -173 -71.5t-67 -184.5v-569h-223v707q0 93 -17 121t-87 24z" />
    <glyph glyph-name="n" unicode="n" horiz-adv-x="1241" 
d="M74 844v145q40 8 73 11t70.5 3t65 -10t51.5 -28t36.5 -51t12.5 -78q38 87 132.5 129.5t203.5 42.5q193 0 292 -118t99 -310v-580h-225v580q1 113 -64.5 180t-167.5 69q-106 0 -178 -75t-72 -193v-561h-225v700q0 51 -2 74t-12.5 43t-31 24.5t-58.5 2.5z" />
    <glyph glyph-name="o" unicode="o" 
d="M84 498q0 124 45 224.5t118 162t166.5 95t191.5 33.5t191.5 -33.5t166.5 -95.5t118 -162t45 -224q0 -100 -29.5 -185.5t-79.5 -145.5t-117 -102t-142 -62.5t-154 -20.5q-100 0 -191.5 33t-165.5 95t-118.5 163t-44.5 225zM305 498q0 -88 33 -157t85.5 -104.5t116.5 -52
t128 0t116.5 52.5t85.5 104.5t33 156.5q0 87 -33 155.5t-85.5 103.5t-116.5 51.5t-128 0t-116.5 -51.5t-85.5 -103.5t-33 -155.5z" />
    <glyph glyph-name="p" unicode="p" horiz-adv-x="1228" 
d="M72 995q288 58 288 -168q27 66 82 109t118.5 60.5t137.5 17.5q140 0 243.5 -73t153.5 -188t50 -253q0 -124 -44.5 -227t-121 -167t-170.5 -95t-201.5 -16.5t-206.5 73.5v-576h-223v1180q0 94 -4 113q-10 44 -56 53q-18 4 -44 4zM397 264q82 -57 174.5 -72.5t169.5 10.5
t128 103.5t51 194.5q0 85 -29 155t-91 115t-147 45q-113 0 -184.5 -80.5t-71.5 -193.5v-277z" />
    <glyph glyph-name="q" unicode="q" horiz-adv-x="1196" 
d="M94 500q0 135 42.5 237t115.5 160.5t168 89.5t203.5 30t218 -22t215.5 -63v-1446h-223v571q-87 -48 -178 -64.5t-172 -3t-153 55t-124 106t-82.5 154.5t-30.5 195zM319 500q0 -96 32.5 -167t87 -106t121.5 -44.5t139.5 10.5t138.5 65v535q-112 34 -195 34
q-145 2 -234.5 -77t-89.5 -250z" />
    <glyph glyph-name="r" unicode="r" horiz-adv-x="925" 
d="M72 995q54 15 109 13t99.5 -16t73.5 -52t33 -96q28 82 111.5 129t179.5 47q129 3 227 -70l-55 -192q-89 59 -197 59q-105 0 -178.5 -65.5t-73.5 -180.5v-571h-221v717q0 24 -0.5 35.5t-2 29t-5.5 25t-11.5 17.5t-19 13.5t-28 5.5t-39.5 1z" />
    <glyph glyph-name="s" unicode="s" horiz-adv-x="1040" 
d="M76 291h219q4 -72 71 -111t154 -39q44 0 82.5 7t73.5 23t56.5 47.5t23.5 74.5q0 62 -55.5 90.5t-165.5 42.5q-175 23 -241 44q-159 49 -189 170q-6 27 -7 58q0 61 23 113t63 87.5t93.5 60.5t114 37t126.5 12q117 0 211.5 -32.5t153 -101t55.5 -163.5h-197q0 67 -66 98
t-157 31q-83 0 -145 -38t-58 -100q1 -57 54 -80t182 -38q54 -7 88.5 -12.5t82 -17t77.5 -24.5t63 -35.5t52 -50t31.5 -67t12.5 -88.5q0 -79 -36 -141t-97.5 -98.5t-136.5 -55.5t-160 -19q-69 0 -130 9t-119 31.5t-100.5 57.5t-70 91t-32.5 127z" />
    <glyph glyph-name="t" unicode="t" horiz-adv-x="884" 
d="M43 840v145h201l22 305h197v-305h342v-160h-342v-444q0 -92 27 -147t77.5 -73t113 -11.5t142.5 34.5l23 -168q-130 -40 -237 -41.5t-190 37.5t-129 131.5t-46 233.5v448z" />
    <glyph glyph-name="u" unicode="u" horiz-adv-x="1222" 
d="M133 416v571h225v-571q-1 -118 56.5 -186t156.5 -68q108 0 179 71.5t71 188.5v565h223v-704q0 -93 18.5 -121t86.5 -21l2 -145q-41 -7 -68 -10.5t-67 -4.5t-67 8.5t-53 28t-39 55t-13 87.5q-90 -176 -342 -176q-99 0 -172 33t-115 93t-62 136t-20 170z" />
    <glyph glyph-name="v" unicode="v" horiz-adv-x="1105" 
d="M29 963v24h241q115 -255 279 -657h4q171 404 285 657h237v-24l-477 -973h-88z" />
    <glyph glyph-name="w" unicode="w" horiz-adv-x="1585" 
d="M39 963v24h240q138 -376 217 -610h4l235 588h111l235 -590h6l95 272q22 66 66 184.5t57 155.5h241v-24l-391 -973h-100l-264 596l-263 -596h-100z" />
    <glyph glyph-name="x" unicode="x" horiz-adv-x="1042" 
d="M29 0v25l366 499l-311 439v24h213l113 -156l108 -167h6l107 163l117 160h225v-24l-324 -453l355 -485v-25h-216l-145 201l-115 184h-6l-121 -188l-147 -197h-225z" />
    <glyph glyph-name="y" unicode="y" horiz-adv-x="1128" 
d="M25 963v24h239l146 -344l161 -434h7l149 432l131 346h223v-24l-428 -1047q-28 -71 -50.5 -121t-54.5 -106t-63.5 -90.5t-75 -63.5t-91.5 -37t-110 1t-134 40l26 162q52 -23 95.5 -27.5t77 7t61.5 39t49 65t39 88.5l47 121z" />
    <glyph glyph-name="z" unicode="z" horiz-adv-x="960" 
d="M61 0v45q112 176 170 266.5t154 235t178 258.5h-471v182h793v-29q-12 -19 -80 -124.5t-88.5 -137.5t-78 -120t-90 -136t-80 -117.5t-89.5 -129.5h504v-193h-822z" />
    <glyph glyph-name="braceleft" unicode="{" horiz-adv-x="643" 
d="M74 543v166q36 4 59.5 21t34.5 46.5t14.5 58t3.5 66.5v391q0 57 9.5 100.5t25 74t42.5 52.5t54.5 34t69 19t78.5 9t90 2v-162q-84 0 -122 -28.5t-38 -108.5v-403q0 -90 -30.5 -160t-100.5 -96q75 -30 103 -97.5t28 -165.5v-425q0 -80 39.5 -106.5t120.5 -20.5v-183
q-55 0 -92.5 2t-79.5 9t-69 19.5t-53.5 35t-41.5 54t-24 77t-9 104.5v416q0 187 -112 199z" />
    <glyph glyph-name="bar" unicode="|" horiz-adv-x="534" 
d="M166 -170v1614h203v-1614h-203z" />
    <glyph glyph-name="braceright" unicode="}" horiz-adv-x="643" 
d="M88 -190q81 -6 120.5 20.5t39.5 106.5v425q0 208 139 263q-72 27 -105.5 97.5t-33.5 158.5v403q0 80 -38 108.5t-122 28.5v162q53 0 90 -2t78.5 -9t69 -19t54.5 -34t42.5 -52.5t25 -74t9.5 -100.5v-391q0 -38 3.5 -66.5t14.5 -58t34.5 -46.5t59.5 -21v-166
q-112 -12 -112 -199v-416q0 -59 -9 -104.5t-24 -77t-41.5 -54t-53.5 -35t-69 -19.5t-79.5 -9t-92.5 -2v183z" />
    <glyph glyph-name="asciitilde" unicode="~" horiz-adv-x="1265" 
d="M113 639q40 119 126.5 181t193 59t214.5 -64q44 -28 80.5 -46.5t81.5 -30t80.5 -6t69.5 34.5t57 83l147 -72q-133 -373 -528 -168q-49 26 -86.5 42.5t-84 26.5t-82.5 3.5t-71.5 -35t-60.5 -80.5z" />
    <glyph glyph-name="uni00A0" unicode="&#xa0;" horiz-adv-x="514" 
 />
    <glyph glyph-name="exclamdown" unicode="&#xa1;" horiz-adv-x="532" 
d="M131 877q0 54 39 89t96 35q58 0 96.5 -34.5t38.5 -89.5q0 -58 -38 -91.5t-97 -33.5q-58 0 -96.5 33.5t-38.5 91.5zM139 -463l13 1106h227l18 -1106h-258z" />
    <glyph glyph-name="cent" unicode="&#xa2;" horiz-adv-x="1226" 
d="M119 496q0 82 20 155t56 128t84.5 100.5t105.5 73t119.5 45.5t126 17t125.5 -11l53 151h100l-61 -180q103 -43 172.5 -123t93.5 -197l-207 -6q-40 91 -127 131l-205 -598q71 -14 137.5 -1t122.5 62t80 122l211 -5q-17 -88 -61.5 -159.5t-105.5 -116.5t-136 -73.5
t-153.5 -30t-157.5 13.5l-53 -156h-105l62 185q-132 58 -214.5 179.5t-82.5 293.5zM340 496q0 -94 40 -163t107 -110l203 588q-84 12 -163 -19.5t-133 -109.5t-54 -186z" />
    <glyph glyph-name="sterling" unicode="&#xa3;" horiz-adv-x="1361" 
d="M96 672v125h172q-33 163 -8.5 285t98 204t181 123t241.5 41q222 3 424 -111l-76 -178q-68 47 -162 71.5t-186 18.5q-110 -6 -180 -41.5t-99 -95t-33 -140t19 -177.5h463v-154h-444q26 -143 10 -237q-18 -118 -72 -193q54 26 123 26t124.5 -15.5t126.5 -31.5t118 -16
q75 0 110 44t29 159h189q21 -190 -48 -293.5t-235 -103.5q-53 0 -149.5 20.5t-172.5 37.5t-157.5 10t-128.5 -52h-273v22q97 91 140 181t47 211q3 121 -15 231h-174v29h-2z" />
    <glyph glyph-name="currency" unicode="&#xa4;" horiz-adv-x="1073" 
d="M127 410l96 96q-47 77 -47 190q0 108 47 191l-96 96l119 115l92 -92q91 54 198.5 54t198.5 -54l92 92l119 -115l-96 -96q49 -81 49 -191q0 -105 -49 -192l96 -94l-119 -115l-92 92q-91 -54 -198.5 -54t-198.5 54l-92 -92zM354 696q0 -46 16 -83t41.5 -60t58.5 -35.5
t67.5 -12.5t67.5 12.5t58.5 35.5t41.5 60t16 83q0 61 -27 106t-68 65t-88.5 20t-88.5 -20t-68 -65t-27 -106z" />
    <glyph glyph-name="yen" unicode="&#xa5;" 
d="M70 1401v33h256l147 -334l129 -328l135 334l148 328h256v-33l-373 -733h225v-150h-272v-108h272v-152h-272v-258h-229v258h-277v152h277v108h-277v150h225z" />
    <glyph glyph-name="brokenbar" unicode="&#xa6;" horiz-adv-x="538" 
d="M168 -35v651h203v-651h-203zM168 801v643h203v-643h-203z" />
    <glyph glyph-name="section" unicode="&#xa7;" horiz-adv-x="1320" 
d="M109 59h219q2 -50 34.5 -89t83 -60.5t107 -31t111.5 -7.5q52 0 105 11t101 32t78.5 58t30.5 83q0 41 -15.5 73.5t-51.5 53t-64 33t-84 21t-79 10.5t-80 6q-18 1 -27 2q-88 6 -161.5 25.5t-138.5 56.5t-103 99.5t-40 146.5q-8 179 187 272q-89 38 -138 97.5t-49 152.5
q0 74 27.5 135t74.5 104t111.5 72.5t138.5 43.5t154 14q99 0 188.5 -21t163.5 -62.5t119 -112t47 -161.5q-40 0 -108.5 -1t-108.5 -1q-2 48 -30.5 84t-73.5 55t-93.5 28t-99.5 9q-47 0 -93.5 -9.5t-90.5 -29.5t-71.5 -57t-27.5 -86q0 -30 10 -53.5t32 -40t46.5 -27.5t63 -19
t72 -12.5t82.5 -9.5q72 -7 120 -13.5t109.5 -19.5t102 -29t83 -42.5t67 -60.5t40.5 -82.5t16 -108.5q-3 -171 -168 -266q171 -84 168 -269q0 -92 -43.5 -164t-118.5 -116t-171 -67t-207 -23q-105 0 -200.5 22t-176 65.5t-129.5 117.5t-51 169zM354 604q4 -87 70.5 -128
t193.5 -54q174 -19 220 -29q66 27 109 76t44 113q0 95 -92 138t-270 56q-13 2 -52 6t-59 9q-76 -27 -122 -74.5t-42 -112.5z" />
    <glyph glyph-name="dieresis" unicode="&#xa8;" horiz-adv-x="1042" 
d="M137 1333q0 55 37 88t94 33q55 0 93 -33.5t38 -87.5q0 -53 -38 -86t-93 -33q-56 0 -93.5 33t-37.5 86zM637 1333q0 55 37 88t94 33t94 -33t37 -88q0 -53 -37.5 -86t-93.5 -33t-93.5 33t-37.5 86z" />
    <glyph glyph-name="copyright" unicode="&#xa9;" horiz-adv-x="1619" 
d="M111 711q0 170 60 307t158.5 221.5t224 130t256.5 45.5t256.5 -45.5t224 -130t158.5 -221.5t60 -307t-60 -307.5t-158.5 -222t-224 -130.5t-256.5 -46t-256.5 46t-224 130.5t-158.5 222t-60 307.5zM276 711q0 -135 46 -244.5t121 -176.5t170.5 -103t196 -36t196 37
t170.5 104t121 176t46 243q0 135 -46 244.5t-121 177t-170.5 104t-196 36.5t-196 -36.5t-170.5 -104t-121 -177t-46 -244.5zM485 709q0 100 42.5 175.5t107.5 114t143 47.5t149 -13.5t126 -80.5t73 -143l-133 -4q-14 43 -47 71t-73 37t-83 0.5t-78 -33t-58 -69.5t-23 -102
q0 -99 57 -153t143 -54q56 0 101 32t65 91l136 -2q-13 -65 -49 -116t-83.5 -81t-105 -43t-114.5 -8t-110.5 29t-94.5 64.5t-66 102.5t-25 138z" />
    <glyph glyph-name="ordfeminine" unicode="&#xaa;" horiz-adv-x="1032" 
d="M141 924q-7 121 78 188.5t211 67.5q122 -4 207 -54v50q0 40 -17.5 68.5t-47 44t-62.5 22t-70 6.5q-125 0 -204 -47l-27 116q111 60 256 60q73 0 133 -15t108.5 -46t75.5 -85.5t27 -128.5v-299q0 -39 14 -55t58 -12l2 -96q-208 -36 -215 86q0 24 -2 30q-30 -61 -104.5 -92
t-155.5 -31q-111 0 -184.5 55t-80.5 167zM188 416v145h670v-145h-670zM311 940q0 -53 35 -81t92 -28q67 0 126.5 32t70.5 91v64q-83 47 -178 47q-64 -5 -105.5 -38t-40.5 -87z" />
    <glyph glyph-name="guillemotleft" unicode="&#xab;" horiz-adv-x="1038" 
d="M98 709l293 479l133 -53l-207 -426l207 -422l-133 -54zM492 709l292 479l134 -53l-207 -426l207 -422l-134 -54z" />
    <glyph glyph-name="logicalnot" unicode="&#xac;" horiz-adv-x="1167" 
d="M145 598v193h865v-525h-181v332h-684z" />
    <glyph glyph-name="uni00AD" unicode="&#xad;" horiz-adv-x="952" 
d="M131 586v192h690v-192h-690z" />
    <glyph glyph-name="registered" unicode="&#xae;" horiz-adv-x="1613" 
d="M111 717q0 170 60 307t158 221.5t223 130t256 45.5t256 -45.5t223 -130t158 -221.5t60 -307t-60 -307.5t-158 -222t-223 -130.5t-256 -46t-256 46t-223 130.5t-158 222t-60 307.5zM274 717q0 -135 46 -244.5t121 -176.5t170.5 -103t196 -36t196 37t170.5 104t121 176
t46 243q0 135 -46 244.5t-121 177t-170.5 104t-196 36.5t-196 -36.5t-170.5 -104t-121 -177t-46 -244.5zM575 385v668h285q107 0 174.5 -60.5t67.5 -167.5q0 -71 -37 -124.5t-104 -71.5l159 -221v-23h-141l-152 225h-116v-225h-136zM711 723h137q52 0 85.5 28.5t33.5 75.5
q0 45 -33 75t-86 30h-137v-209z" />
    <glyph glyph-name="macron" unicode="&#xaf;" horiz-adv-x="1021" 
d="M184 1249v181h633v-181h-633z" />
    <glyph glyph-name="degree" unicode="&#xb0;" horiz-adv-x="899" 
d="M98 1124q0 79 30 143t79.5 103.5t113 61t129 21.5t129 -21.5t113 -61t79.5 -103.5t30 -143q0 -80 -30 -144t-79.5 -103.5t-113 -61t-129 -21.5t-129 21.5t-113 61t-79.5 103.5t-30 144zM262 1124q0 -50 20.5 -89.5t53 -60t71.5 -30t78.5 0t72 30t53 60t20.5 89.5
t-20.5 89.5t-53 60t-72 30t-78.5 0t-71.5 -30t-53 -60t-20.5 -89.5z" />
    <glyph glyph-name="plusminus" unicode="&#xb1;" horiz-adv-x="1069" 
d="M147 57v193h773v-193h-773zM162 655v185h284v280h179v-280h286v-185h-286v-243h-179v243h-284z" />
    <glyph glyph-name="uni00B2" unicode="&#xb2;" horiz-adv-x="847" 
d="M127 696v37l342 432q47 56 57.5 113t-21 95t-97.5 38q-116 0 -125 -113h-146q0 123 75 193t208 70q98 0 164.5 -43t89.5 -107.5t7.5 -143t-69.5 -147.5l-215 -274h322v-150h-592z" />
    <glyph glyph-name="uni00B3" unicode="&#xb3;" horiz-adv-x="813" 
d="M100 944h152q4 -53 45.5 -84t103.5 -31q67 0 108.5 39.5t41.5 100.5q0 50 -24.5 83t-62.5 45t-84 16t-89 -5v25l184 274h-340v139h572v-24l-207 -299q102 -11 160.5 -84.5t58.5 -167.5q0 -121 -85.5 -205t-230.5 -84q-129 0 -214 70t-89 192z" />
    <glyph glyph-name="acute" unicode="&#xb4;" horiz-adv-x="620" 
d="M127 1143v22l162 301l205 -77v-21l-181 -225h-186z" />
    <glyph glyph-name="paragraph" unicode="&#xb6;" horiz-adv-x="1560" 
d="M557 365q-114 3 -207.5 50.5t-152.5 123t-92 171t-34 195t31 194t92 169t160 119.5t226 45h796v-1856h-223v1653h-375v-1653h-221v789z" />
    <glyph glyph-name="periodcentered" unicode="&#xb7;" horiz-adv-x="538" 
d="M131 733q0 59 39 94t98 35q61 0 100.5 -35t39.5 -94q0 -55 -40 -91t-100 -36q-58 0 -97.5 36t-39.5 91z" />
    <glyph glyph-name="cedilla" unicode="&#xb8;" horiz-adv-x="802" 
d="M180 -410l10 123q35 -28 91 -44.5t108 -7t66 51.5q13 40 -13.5 72.5t-67.5 47t-77 11.5l47 183h168l-31 -125q99 -7 139.5 -75.5t14.5 -158.5q-20 -63 -75 -99t-122 -41.5t-136.5 11t-121.5 51.5z" />
    <glyph glyph-name="uni00B9" unicode="&#xb9;" horiz-adv-x="708" 
d="M119 696v138h157v577h-137v137h307v-714h160v-138h-487z" />
    <glyph glyph-name="ordmasculine" unicode="&#xba;" horiz-adv-x="1095" 
d="M123 1092q0 95 36 172t95.5 124.5t135 73.5t154.5 26t154.5 -25.5t135 -73t95.5 -125t36 -172.5q0 -96 -36 -173.5t-95.5 -125t-135 -73t-154.5 -25.5t-154.5 26t-135 73.5t-95.5 125t-36 172.5zM141 365v184h820v-184h-820zM311 1092q0 -57 20 -103.5t53 -75t75 -44
t85.5 -15.5t85.5 15.5t75 44t53 75t20 103.5q0 75 -34.5 130.5t-86.5 80.5t-112.5 25t-112.5 -25t-86.5 -80.5t-34.5 -130.5z" />
    <glyph glyph-name="guillemotright" unicode="&#xbb;" horiz-adv-x="1038" 
d="M121 287l207 422l-207 426l133 53l293 -479l-293 -476zM514 287l207 422l-207 426l133 53l293 -479l-293 -476z" />
    <glyph glyph-name="onequarter" unicode="&#xbc;" horiz-adv-x="1892" 
d="M98 598v137h156v576h-137v137h307v-713h160v-137h-486zM510 2l692 1432h201l-694 -1432h-199zM1143 170v78l405 604h183v-539h86v-143h-86v-170h-160v170h-428zM1341 307h240v166q6 59 10 178h-2z" />
    <glyph glyph-name="onehalf" unicode="&#xbd;" horiz-adv-x="1925" 
d="M98 598v137h156v576h-137v137h307v-713h160v-137h-486zM479 0l721 1434h201l-721 -1434h-201zM1251 0v37l342 432q47 56 57.5 113t-21 95t-97.5 38q-116 0 -125 -113h-145q0 123 74.5 192.5t207.5 69.5q79 0 138.5 -27.5t89.5 -74t38.5 -103t-11 -118.5t-62.5 -117
l-215 -274h321v-150h-592z" />
    <glyph glyph-name="threequarters" unicode="&#xbe;" horiz-adv-x="1939" 
d="M82 840h151q4 -53 45.5 -84t104.5 -31q67 0 108 39t41 100q0 50 -24.5 83t-62.5 45t-84 16.5t-89 -4.5v24l185 275h-340v139h571v-25l-207 -299q102 -11 160.5 -84.5t58.5 -167.5q0 -121 -85 -204.5t-230 -83.5q-129 0 -214 70t-89 192zM557 2l692 1432h201l-694 -1432
h-199zM1190 170v78l405 604h183v-539h86v-143h-86v-170h-160v170h-428zM1389 307h239v166q6 59 10 178h-2z" />
    <glyph glyph-name="questiondown" unicode="&#xbf;" horiz-adv-x="1013" 
d="M74 18q9 74 46.5 138.5t83.5 114t90.5 103.5t73.5 131.5t27 172.5h234q3 -80 -10.5 -146.5t-38.5 -113t-56.5 -86t-65.5 -73t-64.5 -65.5t-54.5 -72.5t-34 -86.5q-16 -121 49.5 -189.5t171.5 -68.5q81 0 147 53t77 141h198q-7 -198 -121 -300.5t-299 -102.5
q-171 -5 -298 83t-152 232q-13 77 -4 135zM379 911q0 55 38 90t95 35q58 0 97.5 -35t39.5 -90q0 -56 -39.5 -90.5t-97.5 -34.5t-95.5 34.5t-37.5 90.5z" />
    <glyph glyph-name="Agrave" unicode="&#xc0;" horiz-adv-x="1439" 
d="M2 0v31l664 1413h110l660 -1413v-31h-248l-141 297h-656l-139 -297h-250zM444 1788v20l205 78l162 -301v-22h-186zM469 498h502l-250 573z" />
    <glyph glyph-name="Aacute" unicode="&#xc1;" horiz-adv-x="1439" 
d="M2 0v31l664 1413h110l660 -1413v-31h-248l-141 297h-656l-139 -297h-250zM469 498h502l-250 573zM625 1575v22l161 301l205 -77v-21l-180 -225h-186z" />
    <glyph glyph-name="Acircumflex" unicode="&#xc2;" horiz-adv-x="1439" 
d="M2 0v31l664 1413h110l660 -1413v-31h-248l-141 297h-656l-139 -297h-250zM319 1528v22l289 287h226l286 -289v-20h-221l-178 174l-178 -174h-224zM469 498h502l-250 573z" />
    <glyph glyph-name="Atilde" unicode="&#xc3;" horiz-adv-x="1439" 
d="M2 0v31l664 1413h110l660 -1413v-31h-248l-141 297h-656l-139 -297h-250zM377 1612q59 133 151.5 173.5t223.5 -24.5q34 -21 60 -31.5t55.5 -13.5t53.5 15t42 57q64 -28 118 -57q-48 -132 -138.5 -174.5t-213.5 20.5q-171 102 -233 -25zM469 498h502l-250 573z" />
    <glyph glyph-name="Adieresis" unicode="&#xc4;" horiz-adv-x="1439" 
d="M2 0v31l664 1413h110l660 -1413v-31h-248l-141 297h-656l-139 -297h-250zM338 1630q0 55 37 88t94 33q55 0 93 -33.5t38 -87.5q0 -53 -38 -86t-93 -33q-56 0 -93.5 33t-37.5 86zM469 498h502l-250 573zM838 1630q0 55 37 88t94 33t94 -33t37 -88q0 -53 -37.5 -86
t-93.5 -33t-93.5 33t-37.5 86z" />
    <glyph glyph-name="Aring" unicode="&#xc5;" horiz-adv-x="1439" 
d="M2 0v31l651 1384q-86 19 -141 78t-55 154q0 58 22 104.5t58.5 75t83 44.5t94.5 16t94.5 -16t83 -44.5t58.5 -75t22 -104.5q0 -93 -53 -151t-134 -77l650 -1388v-31h-248l-141 297h-656l-139 -297h-250zM469 498h502l-250 551zM590 1647q0 -44 26 -74t62.5 -37t73 0
t62.5 37t26 74t-26 74t-62.5 37t-73 0t-62.5 -37t-26 -74z" />
    <glyph glyph-name="AE" unicode="&#xc6;" horiz-adv-x="1687" 
d="M4 0v35l698 1395h850v-205h-534v-389h508v-193h-508v-444h557v-199h-762v379h-395l-182 -379h-232zM494 573h319l8 666h-2z" />
    <glyph glyph-name="Ccedilla" unicode="&#xc7;" horiz-adv-x="1558" 
d="M94 715q0 169 59 309.5t159 232.5t232 142.5t279 50.5q108 0 210 -30t191 -87.5t155 -150.5t94 -211h-234q-52 129 -162 194.5t-256 67.5q-219 0 -353 -144t-134 -374q0 -142 60 -258.5t172 -185t255 -68.5q152 0 266 73.5t160 212.5h232q-24 -111 -78.5 -200.5
t-129.5 -149.5t-163 -96t-186 -49l-29 -115q98 -7 141.5 -70.5t16.5 -152.5q-25 -81 -110 -116t-180.5 -22t-164.5 60l12 129q34 -28 88.5 -41t104 0.5t63.5 54.5q18 58 -34.5 87t-116.5 24l39 158q-136 10 -255 65t-209 146t-142 224t-52 290z" />
    <glyph glyph-name="Egrave" unicode="&#xc8;" horiz-adv-x="1181" 
d="M178 0v1434h873v-209h-633v-379h598v-211h-598v-418h645v-217h-885zM383 1780v20l205 78l162 -301v-23h-187z" />
    <glyph glyph-name="Eacute" unicode="&#xc9;" horiz-adv-x="1181" 
d="M178 0v1434h873v-209h-633v-379h598v-211h-598v-418h645v-217h-885zM514 1556v23l162 301l205 -78v-20l-181 -226h-186z" />
    <glyph glyph-name="Ecircumflex" unicode="&#xca;" horiz-adv-x="1181" 
d="M178 0v1434h873v-209h-633v-379h598v-211h-598v-418h645v-217h-885zM248 1552v23l276 283h215l275 -285v-21h-213l-170 172l-170 -172h-213z" />
    <glyph glyph-name="Edieresis" unicode="&#xcb;" horiz-adv-x="1181" 
d="M178 0v1434h873v-209h-633v-379h598v-211h-598v-418h645v-217h-885zM238 1686q0 54 37 87t94 33q56 0 93.5 -33t37.5 -87q0 -53 -38 -86t-93 -33q-56 0 -93.5 33t-37.5 86zM737 1686q0 54 37 87t94 33t94 -33t37 -87q0 -53 -37.5 -86t-93.5 -33t-93.5 33t-37.5 86z" />
    <glyph glyph-name="Igrave" unicode="&#xcc;" horiz-adv-x="856" 
d="M82 0v193h227v1050h-209v191h656v-191h-209v-1050h227v-193h-692zM150 1776v20l204 78l162 -301v-23h-186z" />
    <glyph glyph-name="Iacute" unicode="&#xcd;" horiz-adv-x="856" 
d="M82 0v193h227v1050h-209v191h656v-191h-209v-1050h227v-193h-692zM317 1567v22l162 301l205 -78v-20l-180 -225h-187z" />
    <glyph glyph-name="Icircumflex" unicode="&#xce;" horiz-adv-x="856" 
d="M49 1559v22l277 279h217l272 -281v-20h-211l-170 170l-170 -170h-215zM82 0v193h227v1050h-209v191h656v-191h-209v-1050h227v-193h-692z" />
    <glyph glyph-name="Idieresis" unicode="&#xcf;" horiz-adv-x="856" 
d="M82 0v193h227v1050h-209v191h656v-191h-209v-1050h227v-193h-692zM82 1677q0 55 37 88t94 33q55 0 93 -33.5t38 -87.5q0 -53 -38 -85.5t-93 -32.5q-57 0 -94 32.5t-37 85.5zM518 1677q0 55 37 88t94 33t94 -33t37 -88q0 -53 -37 -85.5t-94 -32.5t-94 32.5t-37 85.5z" />
    <glyph glyph-name="Eth" unicode="&#xd0;" horiz-adv-x="1511" 
d="M35 610v189h162v633h518q131 0 244 -38t195.5 -104.5t142 -156.5t89 -195.5t29.5 -218.5q0 -114 -29 -219.5t-88 -196.5t-141.5 -158.5t-196 -106t-245.5 -38.5h-518v610h-162zM434 217h277q108 0 197.5 40t148 109t90 159t31.5 192t-32 192.5t-90 159t-147 108.5
t-196 40h-279v-418h244v-189h-244v-393z" />
    <glyph glyph-name="Ntilde" unicode="&#xd1;" horiz-adv-x="1533" 
d="M178 0v1438h86l871 -965l-17 438v523h238v-1436h-82l-877 977l17 -455v-520h-236zM377 1595q59 133 151.5 174t223.5 -24q34 -21 60 -31.5t55.5 -13.5t53.5 15t42 57q53 -23 118 -58q-48 -132 -138.5 -174t-213.5 21q-171 102 -233 -25z" />
    <glyph glyph-name="Ograve" unicode="&#xd2;" horiz-adv-x="1648" 
d="M94 717q0 170 59.5 312t160.5 234.5t232.5 143.5t278.5 51t279 -51t232 -143.5t159 -234.5t59 -312q0 -216 -92.5 -385t-260 -263t-380.5 -94q-148 0 -279.5 51t-231 144t-158 234.5t-58.5 312.5zM336 717q0 -122 38.5 -221t105 -163t155 -98t190.5 -34q101 0 190 34
t156.5 98t106.5 163t39 221q0 120 -39 219t-105.5 163.5t-155.5 100t-190 35.5q-102 0 -191 -35t-156 -99t-105.5 -163.5t-38.5 -220.5zM553 1804v21l205 78l162 -301v-23h-187z" />
    <glyph glyph-name="Oacute" unicode="&#xd3;" horiz-adv-x="1648" 
d="M94 717q0 170 59.5 312t160.5 234.5t232.5 143.5t278.5 51t279 -51t232 -143.5t159 -234.5t59 -312q0 -216 -92.5 -385t-260 -263t-380.5 -94q-148 0 -279.5 51t-231 144t-158 234.5t-58.5 312.5zM336 717q0 -122 38.5 -221t105 -163t155 -98t190.5 -34q101 0 190 34
t156.5 98t106.5 163t39 221q0 120 -39 219t-105.5 163.5t-155.5 100t-190 35.5q-102 0 -191 -35t-156 -99t-105.5 -163.5t-38.5 -220.5zM737 1581v23l162 301l205 -78v-21l-180 -225h-187z" />
    <glyph glyph-name="Ocircumflex" unicode="&#xd4;" horiz-adv-x="1648" 
d="M94 717q0 170 59.5 312t160.5 234.5t232.5 143.5t278.5 51t279 -51t232 -143.5t159 -234.5t59 -312q0 -216 -92.5 -385t-260 -263t-380.5 -94q-148 0 -279.5 51t-231 144t-158 234.5t-58.5 312.5zM336 717q0 -122 38.5 -221t105 -163t155 -98t190.5 -34q101 0 190 34
t156.5 98t106.5 163t39 221q0 120 -39 219t-105.5 163.5t-155.5 100t-190 35.5q-102 0 -191 -35t-156 -99t-105.5 -163.5t-38.5 -220.5zM436 1569v22l289 287h225l287 -289v-20h-221l-178 174l-179 -174h-223z" />
    <glyph glyph-name="Otilde" unicode="&#xd5;" horiz-adv-x="1648" 
d="M94 717q0 170 59.5 312t160.5 234.5t232.5 143.5t278.5 51t279 -51t232 -143.5t159 -234.5t59 -312q0 -216 -92.5 -385t-260 -263t-380.5 -94q-148 0 -279.5 51t-231 144t-158 234.5t-58.5 312.5zM336 717q0 -122 38.5 -221t105 -163t155 -98t190.5 -34q101 0 190 34
t156.5 98t106.5 163t39 221q0 120 -39 219t-105.5 163.5t-155.5 100t-190 35.5q-102 0 -191 -35t-156 -99t-105.5 -163.5t-38.5 -220.5zM489 1638q59 133 151.5 174t223.5 -24q34 -21 60 -31.5t55.5 -13.5t53.5 15t42 57q59 -26 119 -58q-48 -132 -138.5 -174t-213.5 21
q-172 103 -234 -25z" />
    <glyph glyph-name="Odieresis" unicode="&#xd6;" horiz-adv-x="1648" 
d="M94 717q0 170 59.5 312t160.5 234.5t232.5 143.5t278.5 51t279 -51t232 -143.5t159 -234.5t59 -312q0 -216 -92.5 -385t-260 -263t-380.5 -94q-148 0 -279.5 51t-231 144t-158 234.5t-58.5 312.5zM336 717q0 -122 38.5 -221t105 -163t155 -98t190.5 -34q101 0 190 34
t156.5 98t106.5 163t39 221q0 120 -39 219t-105.5 163.5t-155.5 100t-190 35.5q-102 0 -191 -35t-156 -99t-105.5 -163.5t-38.5 -220.5zM428 1679q0 55 37 88t94 33q55 0 93 -33.5t38 -87.5q0 -53 -38 -85.5t-93 -32.5q-57 0 -94 32.5t-37 85.5zM928 1679q0 55 37 88t94 33
t94 -33t37 -88q0 -53 -37 -85.5t-94 -32.5t-94 32.5t-37 85.5z" />
    <glyph glyph-name="multiply" unicode="&#xd7;" horiz-adv-x="944" 
d="M125 924l135 135l213 -213l211 211l135 -135l-211 -211l209 -211l-135 -135l-209 210l-209 -208l-137 135l211 209z" />
    <glyph glyph-name="Oslash" unicode="&#xd8;" horiz-adv-x="1642" 
d="M94 715q0 171 59.5 312.5t160 233.5t232 142.5t277.5 50.5q157 0 295 -59l84 145h225v-20l-135 -230q256 -204 256 -575q0 -170 -59 -311.5t-159 -233.5t-232 -142.5t-279 -50.5q-150 0 -276 56l-88 -148h-226v25l136 223q-127 95 -199 241.5t-72 340.5zM334 715
q0 -239 164 -379l508 854q-84 37 -183 37q-135 0 -245.5 -60.5t-177 -178.5t-66.5 -273zM655 240q82 -37 168 -37q134 0 244 61.5t177 179.5t67 271q0 229 -156 368z" />
    <glyph glyph-name="Ugrave" unicode="&#xd9;" horiz-adv-x="1443" 
d="M164 481v953h237v-947q0 -137 91.5 -214.5t232.5 -77.5q140 0 229.5 77.5t89.5 214.5v947h236v-953q0 -117 -43.5 -212t-119.5 -157.5t-176.5 -96t-215.5 -33.5q-156 0 -282 57t-202.5 172t-76.5 270zM481 1778v20l205 78l162 -301v-23h-186z" />
    <glyph glyph-name="Uacute" unicode="&#xda;" horiz-adv-x="1443" 
d="M164 481v953h237v-947q0 -137 91.5 -214.5t232.5 -77.5q140 0 229.5 77.5t89.5 214.5v947h236v-953q0 -117 -43.5 -212t-119.5 -157.5t-176.5 -96t-215.5 -33.5q-156 0 -282 57t-202.5 172t-76.5 270zM592 1565v22l162 301l204 -78v-20l-180 -225h-186z" />
    <glyph glyph-name="Ucircumflex" unicode="&#xdb;" horiz-adv-x="1443" 
d="M164 481v953h237v-947q0 -137 91.5 -214.5t232.5 -77.5q140 0 229.5 77.5t89.5 214.5v947h236v-953q0 -117 -43.5 -212t-119.5 -157.5t-176.5 -96t-215.5 -33.5q-156 0 -282 57t-202.5 172t-76.5 270zM319 1559v22l289 287h226l286 -289v-20h-221l-178 174l-178 -174
h-224z" />
    <glyph glyph-name="Udieresis" unicode="&#xdc;" horiz-adv-x="1443" 
d="M164 481v953h237v-947q0 -137 91.5 -214.5t232.5 -77.5q140 0 229.5 77.5t89.5 214.5v947h236v-953q0 -117 -43.5 -212t-119.5 -157.5t-176.5 -96t-215.5 -33.5q-156 0 -282 57t-202.5 172t-76.5 270zM334 1673q0 55 37 88t94 33q55 0 93 -33.5t38 -87.5q0 -53 -38 -86
t-93 -33q-56 0 -93.5 33t-37.5 86zM834 1673q0 55 37 88t94 33t94 -33t37 -88q0 -53 -37.5 -86t-93.5 -33t-93.5 33t-37.5 86z" />
    <glyph glyph-name="Yacute" unicode="&#xdd;" horiz-adv-x="1290" 
d="M20 1399v35h256l193 -320l172 -330h8l178 340l187 310h254v-35l-504 -817v-582h-238v582zM520 1567v22l162 301l205 -78v-20l-180 -225h-187z" />
    <glyph glyph-name="Thorn" unicode="&#xde;" horiz-adv-x="1339" 
d="M178 0v1434h238v-207h356q116 0 212.5 -40.5t160 -109.5t98.5 -160.5t35 -193.5q-2 -101 -37.5 -191t-98.5 -158.5t-158.5 -108.5t-211.5 -40h-356v-225h-238zM414 434h358q118 0 196.5 85t78.5 210q0 126 -76 209.5t-199 83.5h-358v-588z" />
    <glyph glyph-name="germandbls" unicode="&#xdf;" horiz-adv-x="1228" 
d="M145 0v1018q0 95 24.5 169.5t64.5 121.5t98.5 77.5t119.5 44t135.5 15t138 -5t135 -20.5t119 -26.5t97.5 -27.5v-45l-274 -481q146 0 244 -113.5t98 -275.5q0 -135 -44.5 -238t-124.5 -158.5t-189 -69.5t-238 27v181q163 -43 261.5 28.5t98.5 220.5q0 145 -105 214
t-249 40v54l252 485q-95 30 -174 31.5t-139 -25.5t-93.5 -91t-33.5 -161v-989h-222z" />
    <glyph glyph-name="agrave" unicode="&#xe0;" horiz-adv-x="1124" 
d="M70 289q-4 170 103.5 259t279.5 89q159 0 292 -74v99q0 89 -66.5 131t-172.5 47q-86 4 -179 -17.5t-149 -48.5l-33 160q153 78 365 78q75 0 139.5 -11t123.5 -37t100 -66t65.5 -102t24.5 -141v-389q0 -83 10 -106q18 -42 92 -35l4 -127q-53 -9 -89.5 -12t-75 3.5
t-62 25.5t-39 56.5t-17.5 94.5q-46 -92 -147 -138t-215 -46q-92 0 -171.5 35.5t-131 107t-51.5 164.5zM289 301q0 -69 53 -106t127 -37q98 0 179 46.5t97 133.5v82q-121 70 -256 67q-86 -2 -143 -50.5t-57 -135.5zM315 1395v18l187 72l149 -277v-20h-172z" />
    <glyph glyph-name="aacute" unicode="&#xe1;" horiz-adv-x="1124" 
d="M70 289q-4 170 103.5 259t279.5 89q159 0 292 -74v99q0 89 -66.5 131t-172.5 47q-86 4 -179 -17.5t-149 -48.5l-33 160q153 78 365 78q75 0 139.5 -11t123.5 -37t100 -66t65.5 -102t24.5 -141v-389q0 -83 10 -106q18 -42 92 -35l4 -127q-53 -9 -89.5 -12t-75 3.5
t-62 25.5t-39 56.5t-17.5 94.5q-46 -92 -147 -138t-215 -46q-92 0 -171.5 35.5t-131 107t-51.5 164.5zM289 301q0 -69 53 -106t127 -37q98 0 179 46.5t97 133.5v82q-121 70 -256 67q-86 -2 -143 -50.5t-57 -135.5zM428 1198v19l145 272l185 -72v-18l-162 -201h-168z" />
    <glyph glyph-name="acircumflex" unicode="&#xe2;" horiz-adv-x="1124" 
d="M70 289q-4 170 103.5 259t279.5 89q159 0 292 -74v99q0 89 -66.5 131t-172.5 47q-86 4 -179 -17.5t-149 -48.5l-33 160q153 78 365 78q75 0 139.5 -11t123.5 -37t100 -66t65.5 -102t24.5 -141v-389q0 -83 10 -106q18 -42 92 -35l4 -127q-53 -9 -89.5 -12t-75 3.5
t-62 25.5t-39 56.5t-17.5 94.5q-46 -92 -147 -138t-215 -46q-92 0 -171.5 35.5t-131 107t-51.5 164.5zM182 1180v20l256 275h199l252 -277v-18h-195l-157 166l-158 -166h-197zM289 301q0 -69 53 -106t127 -37q98 0 179 46.5t97 133.5v82q-121 70 -256 67q-86 -2 -143 -50.5
t-57 -135.5z" />
    <glyph glyph-name="atilde" unicode="&#xe3;" horiz-adv-x="1124" 
d="M70 289q-4 170 103.5 259t279.5 89q159 0 292 -74v99q0 89 -66.5 131t-172.5 47q-86 4 -179 -17.5t-149 -48.5l-33 160q153 78 365 78q75 0 139.5 -11t123.5 -37t100 -66t65.5 -102t24.5 -141v-389q0 -83 10 -106q18 -42 92 -35l4 -127q-53 -9 -89.5 -12t-75 3.5
t-62 25.5t-39 56.5t-17.5 94.5q-46 -92 -147 -138t-215 -46q-92 0 -171.5 35.5t-131 107t-51.5 164.5zM197 1286q120 264 350 139q33 -19 56 -28t51.5 -12.5t51 13.5t37.5 54q16 -7 52 -25t59 -28q-44 -124 -129.5 -163.5t-198.5 19.5q-46 27 -81 38t-74 -1.5t-64 -60.5z
M289 301q0 -69 53 -106t127 -37q98 0 179 46.5t97 133.5v82q-121 70 -256 67q-86 -2 -143 -50.5t-57 -135.5z" />
    <glyph glyph-name="adieresis" unicode="&#xe4;" horiz-adv-x="1124" 
d="M70 289q-4 170 103.5 259t279.5 89q159 0 292 -74v99q0 89 -66.5 131t-172.5 47q-86 4 -179 -17.5t-149 -48.5l-33 160q153 78 365 78q75 0 139.5 -11t123.5 -37t100 -66t65.5 -102t24.5 -141v-389q0 -83 10 -106q18 -42 92 -35l4 -127q-53 -9 -89.5 -12t-75 3.5
t-62 25.5t-39 56.5t-17.5 94.5q-46 -92 -147 -138t-215 -46q-92 0 -171.5 35.5t-131 107t-51.5 164.5zM190 1325q0 54 37.5 87.5t94.5 33.5q55 0 93 -33.5t38 -87.5q0 -53 -38 -86t-93 -33q-57 0 -94.5 33t-37.5 86zM289 301q0 -69 53 -106t127 -37q98 0 179 46.5t97 133.5
v82q-121 70 -256 67q-86 -2 -143 -50.5t-57 -135.5zM618 1325q0 54 37.5 87.5t94.5 33.5t94 -33t37 -88q0 -53 -37.5 -86t-93.5 -33q-57 0 -94.5 33t-37.5 86z" />
    <glyph glyph-name="aring" unicode="&#xe5;" horiz-adv-x="1124" 
d="M70 289q-4 170 103.5 259t279.5 89q159 0 292 -74v99q0 89 -66.5 131t-172.5 47q-86 4 -179 -17.5t-149 -48.5l-33 160q153 78 365 78q75 0 139.5 -11t123.5 -37t100 -66t65.5 -102t24.5 -141v-389q0 -83 10 -106q18 -42 92 -35l4 -127q-53 -9 -89.5 -12t-75 3.5
t-62 25.5t-39 56.5t-17.5 94.5q-46 -92 -147 -138t-215 -46q-92 0 -171.5 35.5t-131 107t-51.5 164.5zM289 301q0 -69 53 -106t127 -37q98 0 179 46.5t97 133.5v82q-121 70 -256 67q-86 -2 -143 -50.5t-57 -135.5zM315 1333q0 64 35.5 110.5t88 67.5t114.5 21t114.5 -21
t88 -67.5t35.5 -110.5t-35.5 -111t-88 -68t-114.5 -21t-114.5 21t-88 68t-35.5 111zM436 1333q0 -46 36.5 -72t80.5 -26t80.5 26t36.5 72q0 44 -36.5 69.5t-80.5 25.5t-80.5 -25.5t-36.5 -69.5z" />
    <glyph glyph-name="ae" unicode="&#xe6;" horiz-adv-x="1679" 
d="M70 283q-7 153 82.5 247t228.5 107q65 10 119 2q127 -10 233 -70v78q0 102 -81 151t-197 44q-75 -4 -153 -25.5t-124 -46.5l-31 156q157 82 349 82q301 0 352 -207q43 102 133 154.5t209 52.5q98 0 175.5 -29t125 -80t76.5 -121t30 -152t-14 -173h-663q2 -141 74 -216.5
t208 -76.5q82 -4 169.5 14.5t156.5 52.5l35 -168q-195 -84 -357 -84q-264 3 -381 207q-148 -202 -409 -202q-140 0 -241 83t-105 220zM279 299q0 -72 54.5 -109.5t129.5 -37.5q92 0 174 48.5t106 129.5q-9 41 -12 86q-130 78 -248 69q-85 -2 -144.5 -52.5t-59.5 -133.5z
M924 612h483q4 99 -60.5 160.5t-168.5 61.5q-102 1 -168.5 -58t-85.5 -164z" />
    <glyph glyph-name="ccedilla" unicode="&#xe7;" horiz-adv-x="1159" 
d="M84 498q0 113 38 207.5t101.5 156t146 100.5t170 49.5t175.5 -7t161.5 -59.5t128.5 -116t76 -170h-213q-25 62 -77.5 102t-114.5 51.5t-128.5 -3.5t-120 -52.5t-88 -105t-34.5 -153.5q0 -89 34.5 -158t88.5 -106.5t120.5 -51t129 1t115.5 59t79 113.5h215
q-32 -151 -134 -243.5t-244 -118.5l-21 -88q99 -7 139.5 -75.5t14.5 -158.5q-20 -63 -75 -99t-122 -41.5t-136.5 11t-121.5 51.5l10 123q35 -28 91 -44.5t108 -7t66 51.5q13 40 -13.5 72.5t-67.5 47t-77 11.5l35 140q-90 9 -171 46t-145 99t-101.5 156.5t-37.5 208.5z" />
    <glyph glyph-name="egrave" unicode="&#xe8;" horiz-adv-x="1128" 
d="M84 514q2 120 44.5 216t113.5 156.5t161.5 92t192.5 31.5q255 0 370.5 -153.5t65.5 -403.5h-729q0 -132 91.5 -209.5t230.5 -77.5q196 -10 358 61l29 -166q-189 -84 -373 -84q-163 -3 -290.5 61t-198.5 188t-66 288zM307 610h545q4 107 -71 167.5t-187 60.5
q-114 0 -189 -57t-98 -171zM348 1405v18l193 74l151 -283v-20h-174z" />
    <glyph glyph-name="eacute" unicode="&#xe9;" horiz-adv-x="1128" 
d="M84 514q2 120 44.5 216t113.5 156.5t161.5 92t192.5 31.5q255 0 370.5 -153.5t65.5 -403.5h-729q0 -132 91.5 -209.5t230.5 -77.5q196 -10 358 61l29 -166q-189 -84 -373 -84q-163 -3 -290.5 61t-198.5 188t-66 288zM307 610h545q4 107 -71 167.5t-187 60.5
q-114 0 -189 -57t-98 -171zM481 1204v23l150 278l190 -71v-19l-168 -211h-172z" />
    <glyph glyph-name="ecircumflex" unicode="&#xea;" horiz-adv-x="1128" 
d="M84 514q2 120 44.5 216t113.5 156.5t161.5 92t192.5 31.5q255 0 370.5 -153.5t65.5 -403.5h-729q0 -132 91.5 -209.5t230.5 -77.5q196 -10 358 61l29 -166q-189 -84 -373 -84q-163 -3 -290.5 61t-198.5 188t-66 288zM219 1169v23l266 264h209l267 -266v-21h-205l-166 162
l-164 -162h-207zM307 610h545q4 107 -71 167.5t-187 60.5q-114 0 -189 -57t-98 -171z" />
    <glyph glyph-name="edieresis" unicode="&#xeb;" horiz-adv-x="1128" 
d="M84 514q2 120 44.5 216t113.5 156.5t161.5 92t192.5 31.5q255 0 370.5 -153.5t65.5 -403.5h-729q0 -132 91.5 -209.5t230.5 -77.5q196 -10 358 61l29 -166q-189 -84 -373 -84q-163 -3 -290.5 61t-198.5 188t-66 288zM225 1321q0 50 34.5 81.5t86.5 31.5q51 0 87 -31.5
t36 -81.5q0 -48 -36 -78.5t-87 -30.5q-52 0 -86.5 30t-34.5 79zM307 610h545q4 107 -71 167.5t-187 60.5q-114 0 -189 -57t-98 -171zM688 1321q0 50 34.5 81.5t86.5 31.5t86.5 -31.5t34.5 -81.5q0 -49 -34.5 -79t-86.5 -30t-86.5 30t-34.5 79z" />
    <glyph glyph-name="igrave" unicode="&#xec;" horiz-adv-x="516" 
d="M-6 1384v21l199 74l155 -289v-23h-180zM147 0v985h222v-985h-222z" />
    <glyph glyph-name="iacute" unicode="&#xed;" horiz-adv-x="516" 
d="M145 1174v22l156 289l197 -76v-18l-172 -217h-181zM147 0v985h222v-985h-222z" />
    <glyph glyph-name="icircumflex" unicode="&#xee;" horiz-adv-x="516" 
d="M-72 1153v25l234 295h184l232 -297v-23h-181l-143 180l-145 -180h-181zM147 0v985h222v-985h-222z" />
    <glyph glyph-name="idieresis" unicode="&#xef;" horiz-adv-x="516" 
d="M-72 1323q0 55 37 88t94 33q55 0 93 -33.5t38 -87.5q0 -53 -38 -86t-93 -33q-56 0 -93.5 33t-37.5 86zM147 0v985h222v-985h-222zM326 1323q0 55 37 88t94 33t94 -33t37 -88q0 -53 -37.5 -86t-93.5 -33t-93.5 33t-37.5 86z" />
    <glyph glyph-name="eth" unicode="&#xf0;" horiz-adv-x="1212" 
d="M86 485q0 105 38 196.5t102 154t149.5 98t179.5 35.5q142 0 258 -84q-46 107 -170 252l-119 -84l-61 86l117 82q-93 112 -203 196v10h186q80 -54 144 -118l122 84l60 -84l-107 -76q153 -167 247.5 -362t94.5 -386q0 -119 -44.5 -216.5t-117.5 -159t-166.5 -95.5
t-190.5 -36t-190.5 29.5t-166.5 91.5t-117.5 160.5t-44.5 225.5zM309 485q0 -75 25.5 -136t67 -98.5t94.5 -57.5t108 -20t108 20t94.5 57.5t67 98.5t25.5 136q0 72 -25.5 130.5t-67 94.5t-94.5 55.5t-108 19.5t-108 -19.5t-94.5 -55.5t-67 -94.5t-25.5 -130.5z" />
    <glyph glyph-name="ntilde" unicode="&#xf1;" horiz-adv-x="1241" 
d="M74 844v145q40 8 73 11t70.5 3t65 -10t51.5 -28t36.5 -51t12.5 -78q38 87 132.5 129.5t203.5 42.5q193 0 292 -118t99 -310v-580h-225v580q1 113 -64.5 180t-167.5 69q-106 0 -178 -75t-72 -193v-561h-225v700q0 51 -2 74t-12.5 43t-31 24.5t-58.5 2.5zM260 1264
q38 84 88.5 129.5t117.5 51.5t148 -40q26 -15 45 -23.5t44 -14.5t43 -2t36.5 20.5t30.5 46.5q74 -34 113 -56q-45 -124 -132 -164t-200 19q-163 98 -221 -23q-76 39 -113 56z" />
    <glyph glyph-name="ograve" unicode="&#xf2;" 
d="M84 498q0 124 45 224.5t118 162t166.5 95t191.5 33.5t191.5 -33.5t166.5 -95t118 -162t45 -224.5t-45 -225t-118 -163t-166.5 -95.5t-191.5 -33.5t-191.5 33.5t-166.5 95.5t-118 163t-45 225zM305 498q0 -102 44.5 -176.5t110.5 -108.5t144 -34t144 34t110.5 108.5
t44.5 176.5q0 77 -25.5 139t-67.5 100t-96 58.5t-110 20.5t-110 -20.5t-96 -58.5t-67.5 -100t-25.5 -139zM356 1403v18l191 72l149 -279v-20h-172z" />
    <glyph glyph-name="oacute" unicode="&#xf3;" 
d="M84 498q0 124 45 224.5t118 162t166.5 95t191.5 33.5t191.5 -33.5t166.5 -95t118 -162t45 -224.5t-45 -225t-118 -163t-166.5 -95.5t-191.5 -33.5t-191.5 33.5t-166.5 95.5t-118 163t-45 225zM305 498q0 -102 44.5 -176.5t110.5 -108.5t144 -34t144 34t110.5 108.5
t44.5 176.5q0 77 -25.5 139t-67.5 100t-96 58.5t-110 20.5t-110 -20.5t-96 -58.5t-67.5 -100t-25.5 -139zM494 1180v22l149 279l191 -72v-18l-168 -211h-172z" />
    <glyph glyph-name="ocircumflex" unicode="&#xf4;" 
d="M84 498q0 124 45 224.5t118 162t166.5 95t191.5 33.5t191.5 -33.5t166.5 -95t118 -162t45 -224.5t-45 -225t-118 -163t-166.5 -95.5t-191.5 -33.5t-191.5 33.5t-166.5 95.5t-118 163t-45 225zM233 1163v21l265 274h207l262 -276v-19h-203l-164 166l-162 -166h-205z
M305 498q0 -102 44.5 -176.5t110.5 -108.5t144 -34t144 34t110.5 108.5t44.5 176.5q0 77 -25.5 139t-67.5 100t-96 58.5t-110 20.5t-110 -20.5t-96 -58.5t-67.5 -100t-25.5 -139z" />
    <glyph glyph-name="otilde" unicode="&#xf5;" 
d="M84 498q0 124 45 224.5t118 162t166.5 95t191.5 33.5t191.5 -33.5t166.5 -95t118 -162t45 -224.5t-45 -225t-118 -163t-166.5 -95.5t-191.5 -33.5t-191.5 33.5t-166.5 95.5t-118 163t-45 225zM268 1288q38 84 88.5 129.5t118 52t148.5 -39.5q27 -15 45.5 -23.5
t43.5 -14.5t42.5 -2t36 20t30.5 46q84 -39 113 -55q-45 -124 -132 -164.5t-200 18.5q-163 98 -221 -22q-59 30 -113 55zM305 498q0 -102 44.5 -176.5t110.5 -108.5t144 -34t144 34t110.5 108.5t44.5 176.5q0 77 -25.5 139t-67.5 100t-96 58.5t-110 20.5t-110 -20.5
t-96 -58.5t-67.5 -100t-25.5 -139z" />
    <glyph glyph-name="odieresis" unicode="&#xf6;" 
d="M84 498q0 124 45 224.5t118 162t166.5 95t191.5 33.5t191.5 -33.5t166.5 -95t118 -162t45 -224.5t-45 -225t-118 -163t-166.5 -95.5t-191.5 -33.5t-191.5 33.5t-166.5 95.5t-118 163t-45 225zM238 1319q0 50 34 81.5t86 31.5q51 0 87 -31.5t36 -81.5q0 -48 -36 -78.5
t-87 -30.5q-52 0 -86 30t-34 79zM305 498q0 -102 44.5 -176.5t110.5 -108.5t144 -34t144 34t110.5 108.5t44.5 176.5q0 77 -25.5 139t-67.5 100t-96 58.5t-110 20.5t-110 -20.5t-96 -58.5t-67.5 -100t-25.5 -139zM700 1319q0 50 34.5 81.5t86.5 31.5t86.5 -31.5t34.5 -81.5
q0 -49 -34.5 -79t-86.5 -30t-86.5 30t-34.5 79z" />
    <glyph glyph-name="divide" unicode="&#xf7;" horiz-adv-x="1101" 
d="M127 637v188h848v-188h-848zM416 371q0 58 38.5 92.5t96.5 34.5q59 0 97 -34t38 -93q0 -55 -38.5 -90t-96.5 -35q-57 0 -96 35t-39 90zM416 1096q0 58 38.5 92.5t96.5 34.5q59 0 97 -34t38 -93q0 -55 -38.5 -90t-96.5 -35q-57 0 -96 35t-39 90z" />
    <glyph glyph-name="oslash" unicode="&#xf8;" 
d="M84 498q0 101 30 187t81.5 145.5t120 102t145 60.5t156.5 16.5t155 -24.5l66 129h178l-98 -196q97 -64 152.5 -171t55.5 -249q0 -86 -21.5 -161t-59.5 -131.5t-89.5 -100.5t-112.5 -71t-126.5 -40t-133.5 -10.5t-132 20.5l-60 -119h-176l92 183q-103 65 -163 173.5
t-60 256.5zM299 498q0 -159 115 -238l276 547q-53 12 -107 11.5t-105 -24.5t-91 -61.5t-64 -98.5t-24 -136zM530 184q43 -13 88 -9.5t87.5 15.5t80.5 40.5t66 65t44.5 89t16.5 113.5q0 146 -104 229z" />
    <glyph glyph-name="ugrave" unicode="&#xf9;" horiz-adv-x="1222" 
d="M133 416v571h225v-571q-1 -118 56.5 -186t156.5 -68q108 0 179 71.5t71 188.5v565h223v-704q0 -93 18.5 -121t86.5 -21l2 -145q-41 -7 -68 -10.5t-67 -4.5t-67 8.5t-53 28t-39 55t-13 87.5q-90 -176 -342 -176q-99 0 -172 33t-115 93t-62 136t-20 170zM356 1399v18
l195 74l154 -285v-22h-177z" />
    <glyph glyph-name="uacute" unicode="&#xfa;" horiz-adv-x="1222" 
d="M133 416v571h225v-571q-1 -118 56.5 -186t156.5 -68q108 0 179 71.5t71 188.5v565h223v-704q0 -93 18.5 -121t86.5 -21l2 -145q-41 -7 -68 -10.5t-67 -4.5t-67 8.5t-53 28t-39 55t-13 87.5q-90 -176 -342 -176q-99 0 -172 33t-115 93t-62 136t-20 170zM481 1184v20
l154 283l192 -72v-20l-170 -211h-176z" />
    <glyph glyph-name="ucircumflex" unicode="&#xfb;" horiz-adv-x="1222" 
d="M133 416v571h225v-571q-1 -118 56.5 -186t156.5 -68q108 0 179 71.5t71 188.5v565h223v-704q0 -93 18.5 -121t86.5 -21l2 -145q-41 -7 -68 -10.5t-67 -4.5t-67 8.5t-53 28t-39 55t-13 87.5q-90 -176 -342 -176q-99 0 -172 33t-115 93t-62 136t-20 170zM197 1176v22
l276 272h215l275 -274v-20h-213l-170 165l-170 -165h-213z" />
    <glyph glyph-name="udieresis" unicode="&#xfc;" horiz-adv-x="1222" 
d="M133 416v571h225v-571q-1 -118 56.5 -186t156.5 -68q108 0 179 71.5t71 188.5v565h223v-704q0 -93 18.5 -121t86.5 -21l2 -145q-41 -7 -68 -10.5t-67 -4.5t-67 8.5t-53 28t-39 55t-13 87.5q-90 -176 -342 -176q-99 0 -172 33t-115 93t-62 136t-20 170zM209 1323
q0 53 37 85t92 32q53 0 90 -32.5t37 -84.5t-37 -84.5t-90 -32.5q-55 0 -92 32t-37 85zM698 1323q0 53 36 85t91 32t91 -32t36 -85t-36 -85t-91 -32t-91 32t-36 85z" />
    <glyph glyph-name="yacute" unicode="&#xfd;" horiz-adv-x="1128" 
d="M25 963v24h239l146 -344l161 -434h7l149 432l131 346h223v-24l-428 -1047q-28 -71 -50.5 -121t-54.5 -106t-63.5 -90.5t-75 -63.5t-91.5 -37t-110 1t-134 40l26 162q52 -23 95.5 -27.5t77 7t61.5 39t49 65t39 88.5l47 121zM432 1165v23l160 299l203 -76v-20l-179 -226
h-184z" />
    <glyph glyph-name="thorn" unicode="&#xfe;" horiz-adv-x="1198" 
d="M145 -506v1979h224v-539q92 50 185.5 67t175 4t152.5 -55t121.5 -106t79.5 -152t29 -190q0 -121 -40.5 -222.5t-113 -166.5t-164.5 -97t-203.5 -18.5t-221.5 72.5v-576h-224zM362 264q69 -49 144.5 -68.5t142 -7t120 50t85 106t31.5 157.5q0 111 -49 188.5t-124 107.5
t-169 16t-181 -75v-475z" />
    <glyph glyph-name="ydieresis" unicode="&#xff;" horiz-adv-x="1128" 
d="M25 963v24h239l146 -344l161 -434h7l149 432l131 346h223v-24l-428 -1047q-28 -71 -50.5 -121t-54.5 -106t-63.5 -90.5t-75 -63.5t-91.5 -37t-110 1t-134 40l26 162q52 -23 95.5 -27.5t77 7t61.5 39t49 65t39 88.5l47 121zM180 1319q0 55 37 88t94 33q55 0 93 -33.5
t38 -87.5q0 -53 -38 -86t-93 -33q-56 0 -93.5 33t-37.5 86zM680 1319q0 55 37 88t94 33t94 -33t37 -88q0 -53 -37.5 -86t-93.5 -33t-93.5 33t-37.5 86z" />
    <glyph glyph-name="OE" unicode="&#x152;" horiz-adv-x="1898" 
d="M96 713q0 176 56 318t155 233.5t232 140.5t288 49q103 0 211 -24h731v-199h-573v-395h537v-189h-537v-448h586v-199h-752q-119 -25 -217 -25q-154 0 -285 50t-227 142.5t-150.5 233t-54.5 312.5zM319 713q0 -261 139 -403t373 -142q92 0 168 22v1045q-90 22 -165 22
q-234 0 -374.5 -145t-140.5 -399z" />
    <glyph glyph-name="oe" unicode="&#x153;" horiz-adv-x="1826" 
d="M84 494q0 102 29.5 189t79.5 147.5t116.5 103t139 60.5t148 14.5t143 -29.5t124.5 -77.5t92 -123.5q116 230 387 230q95 0 171 -29.5t123 -81t75.5 -121.5t30 -152t-13.5 -171h-652q9 -277 285 -289q143 -8 313 67l35 -172q-180 -80 -350 -77q-92 0 -171.5 25t-144 82
t-92.5 140q-31 -76 -86.5 -131.5t-122 -84t-142 -34.5t-148 10.5t-140 58.5t-118 103t-81 150t-30.5 193zM307 494q0 -77 23.5 -139t62 -100t88 -58.5t101 -20.5t101 20.5t88 58.5t62 100t23.5 139t-23.5 139t-62 100t-88 58.5t-101 20.5t-101 -20.5t-88 -58.5t-62 -100
t-23.5 -139zM1081 612h467q4 99 -55.5 159t-159.5 60q-98 0 -165 -58t-87 -161z" />
    <glyph glyph-name="Ydieresis" unicode="&#x178;" horiz-adv-x="1290" 
d="M20 1399v35h256l193 -320l172 -330h8l178 340l187 310h254v-35l-504 -817v-582h-238v582zM264 1675q0 55 37 88t94 33q55 0 93 -33.5t38 -87.5q0 -53 -38 -86t-93 -33q-56 0 -93.5 33t-37.5 86zM764 1675q0 55 37 88t94 33t94 -33t37 -88q0 -53 -37.5 -86t-93.5 -33
t-93.5 33t-37.5 86z" />
    <glyph glyph-name="circumflex" unicode="&#x2c6;" horiz-adv-x="1011" 
d="M119 1128v23l289 287h225l287 -289v-21h-222l-178 175l-178 -175h-223z" />
    <glyph glyph-name="tilde" unicode="&#x2dc;" horiz-adv-x="905" 
d="M109 1274q59 133 151 173.5t223 -24.5q34 -21 60 -31.5t55.5 -13.5t53.5 15t42 57q69 -30 119 -57q-48 -132 -138.5 -174.5t-213.5 20.5q-172 103 -234 -25z" />
    <glyph glyph-name="uni2000" unicode="&#x2000;" horiz-adv-x="952" 
 />
    <glyph glyph-name="uni2001" unicode="&#x2001;" horiz-adv-x="1905" 
 />
    <glyph glyph-name="uni2002" unicode="&#x2002;" horiz-adv-x="952" 
 />
    <glyph glyph-name="uni2003" unicode="&#x2003;" horiz-adv-x="1905" 
 />
    <glyph glyph-name="uni2004" unicode="&#x2004;" horiz-adv-x="635" 
 />
    <glyph glyph-name="uni2005" unicode="&#x2005;" horiz-adv-x="476" 
 />
    <glyph glyph-name="uni2006" unicode="&#x2006;" horiz-adv-x="317" 
 />
    <glyph glyph-name="uni2007" unicode="&#x2007;" horiz-adv-x="317" 
 />
    <glyph glyph-name="uni2008" unicode="&#x2008;" horiz-adv-x="238" 
 />
    <glyph glyph-name="uni2009" unicode="&#x2009;" horiz-adv-x="381" 
 />
    <glyph glyph-name="uni200A" unicode="&#x200a;" horiz-adv-x="105" 
 />
    <glyph glyph-name="uni2010" unicode="&#x2010;" horiz-adv-x="952" 
d="M131 586v192h690v-192h-690z" />
    <glyph glyph-name="uni2011" unicode="&#x2011;" horiz-adv-x="952" 
d="M131 586v192h690v-192h-690z" />
    <glyph glyph-name="figuredash" unicode="&#x2012;" horiz-adv-x="952" 
d="M131 586v192h690v-192h-690z" />
    <glyph glyph-name="endash" unicode="&#x2013;" horiz-adv-x="1112" 
d="M131 586v192h850v-192h-850z" />
    <glyph glyph-name="emdash" unicode="&#x2014;" horiz-adv-x="1292" 
d="M131 586v192h1030v-192h-1030z" />
    <glyph glyph-name="quoteleft" unicode="&#x2018;" horiz-adv-x="489" 
d="M111 1163q4 35 14 58l70 217h135l-45 -158q43 -12 68.5 -44.5t25.5 -78.5q0 -56 -37.5 -90.5t-95.5 -34.5q-59 0 -97 35t-38 96z" />
    <glyph glyph-name="quoteright" unicode="&#x2019;" horiz-adv-x="493" 
d="M115 1319q0 56 38.5 90.5t96.5 34.5q45 0 80.5 -23.5t48.5 -64.5q8 -55 -8 -101l-70 -217h-135l45 160q-43 11 -69.5 43t-26.5 78z" />
    <glyph glyph-name="quotesinglbase" unicode="&#x201a;" horiz-adv-x="526" 
d="M129 96q0 56 38.5 90.5t96.5 34.5t95.5 -35t37.5 -96q-1 -17 -12 -57q-22 -61 -72 -221h-135l47 163q-43 11 -69.5 43t-26.5 78z" />
    <glyph glyph-name="quotedblleft" unicode="&#x201c;" horiz-adv-x="880" 
d="M113 1161q0 31 12 58l70 219h135l-45 -160q43 -13 69.5 -44t26.5 -77q0 -59 -38 -93t-97 -34q-48 0 -82.5 23.5t-46.5 64.5q-7 27 -4 43zM502 1161q3 39 12 58l70 219h137l-47 -160q43 -13 69.5 -44t26.5 -77q0 -59 -38 -93t-97 -34q-60 0 -96.5 35t-36.5 96z" />
    <glyph glyph-name="quotedblright" unicode="&#x201d;" horiz-adv-x="888" 
d="M115 1319q0 56 38.5 90.5t96.5 34.5q45 0 80.5 -23.5t48.5 -64.5q8 -55 -8 -101l-70 -217h-135l45 160q-43 11 -69.5 43t-26.5 78zM510 1319q0 56 38.5 90.5t96.5 34.5q57 0 95 -35.5t38 -95.5q-3 -31 -12 -58l-70 -217h-137l47 160q-43 11 -69.5 43t-26.5 78z" />
    <glyph glyph-name="quotedblbase" unicode="&#x201e;" horiz-adv-x="913" 
d="M129 96q0 56 38.5 90.5t96.5 34.5q48 0 82 -22.5t47 -63.5q7 -27 4 -45q0 -11 -12 -57q-14 -39 -37.5 -113t-34.5 -106h-135l47 161q-43 11 -69.5 43t-26.5 78zM516 96q0 56 37.5 90.5t95.5 34.5q60 0 97.5 -34.5t37.5 -96.5q-4 -34 -14 -57q-14 -39 -37.5 -113
t-34.5 -106h-135l47 161q-42 11 -68 43t-26 78z" />
    <glyph glyph-name="bullet" unicode="&#x2022;" horiz-adv-x="849" 
d="M164 733q0 108 76 176t186 68q109 0 184.5 -68t75.5 -176q0 -104 -76 -172.5t-184 -68.5q-109 0 -185.5 68.5t-76.5 172.5z" />
    <glyph glyph-name="ellipsis" unicode="&#x2026;" horiz-adv-x="1499" 
d="M129 102q0 59 39 94t98 35t98 -35t39 -94q0 -56 -39.5 -91.5t-97.5 -35.5t-97.5 35.5t-39.5 91.5zM608 102q0 59 39 94t98 35t98.5 -35.5t39.5 -93.5q0 -56 -40 -91.5t-98 -35.5t-97.5 35.5t-39.5 91.5zM1094 102q0 58 40 93.5t97 35.5q61 0 100 -35t39 -94
q0 -56 -39 -91.5t-100 -35.5q-57 0 -97 35.5t-40 91.5z" />
    <glyph glyph-name="uni202F" unicode="&#x202f;" horiz-adv-x="381" 
 />
    <glyph glyph-name="guilsinglleft" unicode="&#x2039;" horiz-adv-x="655" 
d="M98 709l293 479l144 -53l-207 -426l207 -422l-144 -54z" />
    <glyph glyph-name="guilsinglright" unicode="&#x203a;" horiz-adv-x="655" 
d="M121 287l207 422l-207 426l143 53l293 -479l-293 -476z" />
    <glyph glyph-name="uni205F" unicode="&#x205f;" horiz-adv-x="476" 
 />
    <glyph glyph-name="Euro" unicode="&#x20ac;" horiz-adv-x="1337" 
d="M90 512v141h143q-3 74 5 138h-148v141h168q65 243 253.5 379.5t438.5 136.5q142 0 267 -47l-72 -189q-87 35 -187 35q-161 1 -280 -85t-170 -230h483l-47 -141h-475q-10 -77 -2 -138h432l-47 -141h-354q46 -147 165 -234.5t291 -87.5q125 0 230 54l78 -195
q-133 -65 -314 -65q-270 0 -455 139t-239 389h-164z" />
    <glyph glyph-name="trademark" unicode="&#x2122;" horiz-adv-x="1556" 
d="M141 1300v136h521v-136h-183v-436h-151v436h-187zM756 864v572h78l241 -269l240 269h78v-572h-152v307l-162 -188h-10l-162 188v-307h-151z" />
    <glyph glyph-name="uniE000" unicode="&#xe000;" horiz-adv-x="983" 
d="M0 0v983h983v-983h-983z" />
    </font>
</defs>
</svg>
